<?xml version="1.0" standalone="no"?>
<!DOCTYPE svg PUBLIC "-//W3C//DTD SVG 1.1//EN" "http://www.w3.org/Graphics/SVG/1.1/DTD/svg11.dtd" >
<svg xmlns="http://www.w3.org/2000/svg" xmlns:xlink="http://www.w3.org/1999/xlink" version="1.1">
<metadata>
Created by FontForge 20201107 at Sun Sep 13 20:32:46 2020
 By Unknown
Copyright \(c\) 2020 by TipoType Team. All rights reserved.
</metadata>
<defs>
<font id="Mundial-Black" horiz-adv-x="1432" >
  <font-face 
    font-family="Mundial"
    font-weight="900"
    font-stretch="normal"
    units-per-em="2048"
    panose-1="0 0 0 0 0 0 0 0 0 0"
    ascent="1638"
    descent="-410"
    x-height="960"
    cap-height="1358"
    bbox="-283 -548 2562 2296"
    underline-thickness="150"
    underline-position="-800"
    stemh="199"
    stemv="228"
    unicode-range="U+000D-FB04"
  />
<missing-glyph horiz-adv-x="1442" 
d="M722 776l-243 242l-97 -97l242 -240l-244 -245l97 -97l245 242l243 -242l97 97l-244 245l242 240l-97 97zM1230 0h-1018v1358h1018v-1358z" />
    <glyph glyph-name="f_f" unicode="ff" horiz-adv-x="1442" 
d="M163 0v658h-146v302h145v91c0 96 26 179 86 255c60 75 175 122 328 122c65 0 131 -11 198 -32l-39 -301c-30 19 -66 29 -108 29c-61 0 -105 -28 -105 -95v-69h300v74c0 187 101 394 444 394c77 0 153 -11 228 -32l-39 -301c-39 19 -85 29 -138 29
c-79 0 -135 -33 -135 -112v-52h249v-302h-234v-658h-374v658h-286v-658h-374z" />
    <glyph glyph-name="fi" unicode="fi" horiz-adv-x="1336" 
d="M17 658v302h145v91c0 96 25 179 84 255c59 75 171 122 320 122c65 0 131 -11 198 -32l-39 -301c-30 19 -66 29 -108 29c-56 0 -95 -28 -95 -95v-69h229v-302h-214v-658h-374v658h-146zM1210 0h-384v960h384v-960zM803 1256c0 63 19 115 58 154s89 59 152 59
s115 -20 154 -59s59 -91 59 -154s-20 -113 -59 -152s-91 -58 -154 -58s-113 19 -152 58s-58 89 -58 152z" />
    <glyph glyph-name="fl" unicode="fl" horiz-adv-x="1336" 
d="M17 658v302h145v91c0 96 26 179 86 255c60 75 175 122 328 122c65 0 131 -11 198 -32l-39 -301c-30 19 -66 29 -108 29c-61 0 -105 -28 -105 -95v-69h229v-302h-214v-658h-374v658h-146zM826 0v1408h384v-1408h-384z" />
    <glyph glyph-name="f_f_i" unicode="ffi" horiz-adv-x="1996" 
d="M163 0v658h-146v302h145v91c0 96 26 179 86 255c60 75 175 122 328 122c65 0 131 -11 198 -32l-39 -301c-30 19 -66 29 -108 29c-61 0 -105 -28 -105 -95v-69h300v91c0 96 26 179 86 255c60 75 175 122 328 122c65 0 131 -11 198 -32l-39 -301c-30 19 -66 29 -108 29
c-61 0 -105 -28 -105 -95v-69h229v-302h-214v-658h-374v658h-286v-658h-374zM1486 0v960h384v-960h-384zM1463 1256c0 63 19 115 58 154s89 59 152 59s115 -20 154 -59s59 -91 59 -154s-20 -113 -59 -152s-91 -58 -154 -58s-113 19 -152 58s-58 89 -58 152z" />
    <glyph glyph-name="f_f_l" unicode="ffl" horiz-adv-x="1996" 
d="M163 0v658h-146v302h145v91c0 96 26 179 86 255c60 75 175 122 328 122c65 0 131 -11 198 -32l-39 -301c-30 19 -66 29 -108 29c-61 0 -105 -28 -105 -95v-69h300v91c0 96 26 179 86 255c60 75 175 122 328 122c65 0 131 -11 198 -32l-39 -301c-30 19 -66 29 -108 29
c-61 0 -105 -28 -105 -95v-69h229v-302h-214v-658h-374v658h-286v-658h-374zM1870 0h-384v1408h384v-1408z" />
    <glyph glyph-name=".notdef" horiz-adv-x="1442" 
d="M722 776l-243 242l-97 -97l242 -240l-244 -245l97 -97l245 242l243 -242l97 97l-244 245l242 240l-97 97zM1230 0h-1018v1358h1018v-1358z" />
    <glyph glyph-name="uni0000" horiz-adv-x="82" 
 />
    <glyph glyph-name="uni000D" unicode="&#xd;" horiz-adv-x="566" 
 />
    <glyph glyph-name="space" unicode=" " horiz-adv-x="464" 
 />
    <glyph glyph-name="exclam" unicode="!" horiz-adv-x="648" 
d="M198 458l-73 900h396l-67 -900h-256zM466 37c-39 -38 -86 -57 -143 -57s-104 19 -142 57c-39 37 -58 84 -58 139s19 102 58 140c38 38 85 57 142 57s104 -19 143 -57s58 -85 58 -140s-19 -102 -58 -139z" />
    <glyph glyph-name="quotedbl" unicode="&#x22;" horiz-adv-x="944" 
d="M142 918l-63 510h339l-63 -510h-213zM589 918l-63 510h339l-64 -510h-212z" />
    <glyph glyph-name="numbersign" unicode="#" horiz-adv-x="1456" 
d="M254 289h-208l48 273h210l46 249h-211l51 272h211l49 275h304l-46 -275h192l49 275h305l-48 -275h206l-48 -272h-210l-46 -249h210l-50 -273h-208l-51 -289h-306l51 289h-194l-50 -289h-306zM850 811h-195l-47 -249h195z" />
    <glyph glyph-name="dollar" unicode="$" horiz-adv-x="1265" 
d="M55 294l285 199c63 -93 141 -150 235 -173v210c-40 12 -73 22 -98 31c-26 9 -57 21 -93 36c-73 30 -112 54 -164 99c-76 63 -112 145 -116 267c0 77 22 147 67 209c44 62 101 110 172 144s148 54 232 60v160h131v-162c188 -21 338 -119 451 -294l-271 -188
c-44 72 -104 120 -180 144v-204c125 -36 209 -68 296 -117c43 -25 79 -51 106 -80c54 -58 88 -140 88 -237c0 -125 -60 -232 -154 -299c-94 -68 -212 -108 -336 -117v-158h-131v159c-229 21 -411 131 -520 311zM782 346c38 31 36 76 4 103c-16 13 -43 27 -80 40v-175
c31 6 57 17 76 32zM575 874v171c-51 -11 -85 -38 -85 -81c0 -35 28 -65 85 -90z" />
    <glyph glyph-name="percent" unicode="%" horiz-adv-x="1769" 
d="M33 1000c0 109 35 200 105 271s160 106 271 106s202 -35 273 -106s106 -162 106 -271c0 -107 -35 -195 -106 -264c-71 -70 -162 -105 -273 -105s-201 35 -271 104s-105 158 -105 265zM1630 85c-71 -70 -162 -105 -273 -105s-201 35 -271 104s-105 158 -105 265
c0 109 35 200 105 271s160 106 271 106s202 -35 273 -106s106 -162 106 -271c0 -107 -35 -195 -106 -264zM1364 1334l-732 -1334h-227v26l734 1332h225v-24zM1243 350c0 -71 46 -122 113 -122c68 0 116 51 116 122c0 72 -48 123 -116 123c-67 0 -113 -51 -113 -123z
M408 1124c-67 0 -113 -51 -113 -123c0 -71 46 -122 113 -122c68 0 116 51 116 122c0 72 -48 123 -116 123z" />
    <glyph glyph-name="ampersand" unicode="&#x26;" horiz-adv-x="1457" 
d="M51 367c0 149 87 269 262 358c-87 98 -130 195 -130 291c0 106 42 193 126 261c83 67 194 101 331 101c129 0 244 -43 317 -108s116 -154 116 -246c0 -77 -33 -152 -88 -209s-113 -100 -184 -136l141 -139c27 43 37 107 30 193h319c4 -164 -37 -297 -122 -400l338 -333
h-439l-93 90c-112 -73 -246 -110 -402 -110c-154 0 -279 36 -376 108s-146 165 -146 279zM401 407c0 -76 80 -131 204 -131c47 0 91 10 132 31l-231 226c-63 -23 -105 -78 -105 -126zM636 1093c-61 0 -107 -38 -107 -97c0 -19 5 -37 14 -52s28 -38 57 -68
c97 45 134 80 134 127c0 55 -42 90 -98 90z" />
    <glyph glyph-name="quotesingle" unicode="'" horiz-adv-x="497" 
d="M418 1428l-63 -510h-213l-63 510h339z" />
    <glyph glyph-name="parenleft" unicode="(" horiz-adv-x="720" 
d="M61 580c0 361 111 687 334 980h341c-118 -187 -198 -353 -241 -498s-65 -305 -65 -482s21 -338 64 -483c42 -145 122 -310 240 -497h-340c-222 289 -333 615 -333 980z" />
    <glyph glyph-name="parenright" unicode=")" horiz-adv-x="720" 
d="M325 -400h-341c118 187 199 353 242 498s64 305 64 482s-21 338 -63 483c-43 145 -123 310 -241 497h340c222 -289 333 -615 333 -980c0 -361 -111 -687 -334 -980z" />
    <glyph glyph-name="asterisk" unicode="*" horiz-adv-x="944" 
d="M362 682l-207 143l139 160l-221 62l80 222l211 -74l-16 213h248l-16 -213l211 74l80 -222l-221 -62l139 -160l-207 -143l-110 181z" />
    <glyph glyph-name="plus" unicode="+" horiz-adv-x="1201" 
d="M21 521v326h387v362h380v-362h391v-326h-391v-370h-380v370h-387z" />
    <glyph glyph-name="comma" unicode="," horiz-adv-x="594" 
d="M4 -263l142 516h364l-210 -516h-296z" />
    <glyph glyph-name="hyphen" unicode="-" horiz-adv-x="965" 
d="M100 668h765v-274h-765v274z" />
    <glyph glyph-name="period" unicode="." horiz-adv-x="541" 
d="M128 37c-39 37 -58 84 -58 139s19 102 58 140c38 38 85 57 142 57s104 -19 143 -57s58 -85 58 -140s-19 -102 -58 -139c-39 -38 -86 -57 -143 -57s-104 19 -142 57z" />
    <glyph glyph-name="slash" unicode="/" horiz-adv-x="1146" 
d="M775 1529h359l-762 -1929h-358z" />
    <glyph glyph-name="zero" unicode="0" horiz-adv-x="1325" 
d="M108 399c-24 82 -36 172 -36 271s12 190 36 274c47 168 137 304 291 379c77 37 165 56 264 56s187 -19 264 -56c153 -75 243 -211 291 -379c23 -84 35 -175 35 -274s-12 -189 -36 -271c-48 -165 -139 -295 -291 -366c-77 -35 -164 -53 -263 -53s-186 18 -263 53
c-153 71 -244 201 -292 366zM753 1020c-52 43 -128 43 -180 0c-26 -21 -46 -50 -61 -86c-30 -73 -44 -158 -44 -254c0 -195 56 -373 195 -373c88 0 150 81 175 190c13 54 19 115 19 183c-2 140 -27 274 -104 340z" />
    <glyph glyph-name="one" unicode="1" horiz-adv-x="828" 
d="M677 0h-388v1028h-279v330h667v-1358z" />
    <glyph glyph-name="two" unicode="2" horiz-adv-x="1172" 
d="M342 878l-293 131c27 88 84 174 169 248s215 122 358 122c155 0 281 -41 378 -124c96 -83 144 -193 144 -328c0 -65 -20 -130 -46 -182s-81 -114 -121 -154c-20 -20 -46 -43 -78 -69c-33 -27 -60 -48 -81 -63c-21 -16 -49 -36 -84 -61c-14 -10 -32 -24 -55 -42
c-23 -19 -35 -29 -37 -31h510v-325h-1010v142c0 52 5 97 22 139c16 42 27 70 62 110c17 19 33 36 46 50c13 13 32 31 59 52c26 21 48 39 66 53s44 34 79 61c24 17 39 29 63 48c75 57 127 104 156 141c29 36 44 76 44 121c0 80 -55 132 -142 132c-89 0 -169 -72 -209 -171z
" />
    <glyph glyph-name="three" unicode="3" horiz-adv-x="1185" 
d="M578 -19c-133 0 -256 42 -343 107c-88 65 -151 146 -184 231l284 152c55 -107 133 -160 232 -160c87 0 143 49 143 116c0 77 -59 128 -148 128h-197v260h207c34 0 64 12 90 36c26 23 39 51 39 82c0 76 -60 120 -133 120c-94 0 -168 -52 -223 -156l-272 137
c39 103 105 186 198 249s198 95 316 95c137 0 263 -36 360 -103c96 -68 157 -179 157 -314c0 -73 -28 -139 -69 -181s-86 -70 -131 -85c54 -19 102 -54 145 -106c43 -53 64 -117 64 -192c0 -124 -49 -224 -148 -301s-228 -115 -387 -115z" />
    <glyph glyph-name="four" unicode="4" horiz-adv-x="1221" 
d="M617 0v317h-597v237l551 804h426v-739h184v-302h-184v-317h-380zM617 955l-203 -336h203v336z" />
    <glyph glyph-name="five" unicode="5" horiz-adv-x="1156" 
d="M548 -19c-241 0 -412 111 -511 332l297 156c51 -106 121 -159 209 -159c44 0 81 15 111 46c30 30 45 67 45 112c0 88 -65 153 -162 153c-76 0 -139 -45 -171 -98l-272 119l77 716h849v-326h-523l-18 -172c43 27 103 41 181 41c125 0 230 -41 314 -123s126 -188 126 -317
c0 -143 -51 -259 -152 -347c-102 -89 -235 -133 -400 -133z" />
    <glyph glyph-name="six" unicode="6" horiz-adv-x="1255" 
d="M652 -20c-239 0 -404 103 -491 259c-61 105 -89 228 -89 364c0 505 243 775 688 775c77 0 144 -7 202 -21c57 -15 115 -37 172 -67l-89 -291c-89 48 -182 72 -278 72c-154 3 -293 -81 -317 -273c45 69 150 121 289 121c141 0 255 -40 340 -119s128 -185 128 -317
c0 -152 -50 -274 -151 -365c-101 -92 -236 -138 -404 -138zM776 588c-34 31 -77 47 -130 47s-96 -16 -130 -47c-34 -32 -51 -73 -51 -122s17 -90 51 -121s77 -47 130 -47s96 16 130 47s51 72 51 121s-17 90 -51 122z" />
    <glyph glyph-name="seven" unicode="7" horiz-adv-x="1052" 
d="M28 1032v326h1011v-263c-223 -355 -392 -720 -508 -1095h-419c149 419 317 763 502 1032h-586z" />
    <glyph glyph-name="eight" unicode="8" horiz-adv-x="1221" 
d="M1003 94c-101 -76 -231 -114 -392 -114s-291 38 -392 114c-101 75 -151 173 -151 294c0 79 22 147 65 203c43 55 96 96 159 123c-57 19 -104 53 -143 101s-58 106 -58 173c0 117 48 211 144 283c95 71 221 107 376 107s280 -36 374 -107c94 -72 141 -166 141 -283
c0 -67 -19 -124 -58 -172c-39 -49 -88 -83 -146 -102c65 -26 119 -67 164 -123s67 -124 67 -203c0 -121 -50 -219 -150 -294zM457 412c0 -41 15 -73 45 -98s66 -37 109 -37s79 12 109 37s45 57 45 98c0 43 -15 77 -45 102s-66 37 -109 37s-79 -12 -109 -37s-45 -59 -45 -102
zM486 964c0 -67 46 -123 125 -123c116 -5 163 142 91 206c-23 22 -54 33 -91 33s-67 -11 -90 -33c-23 -23 -35 -50 -35 -83z" />
    <glyph glyph-name="nine" unicode="9" horiz-adv-x="1258" 
d="M519 429c-127 0 -239 36 -326 107c-88 71 -142 191 -142 339c0 159 51 283 154 371c102 88 236 132 401 132c199 0 353 -70 444 -186c91 -117 136 -265 136 -437c0 -505 -239 -775 -678 -775c-151 0 -279 30 -384 91l69 293c96 -51 195 -77 298 -77c107 0 191 28 254 109
c31 40 51 91 58 154c-23 -31 -60 -59 -110 -84s-108 -37 -174 -37zM470 1017c-33 -31 -49 -72 -49 -122s16 -91 49 -122s75 -47 127 -47s94 16 127 47s49 72 49 122s-16 91 -49 122s-75 46 -127 46s-94 -15 -127 -46z" />
    <glyph glyph-name="colon" unicode=":" horiz-adv-x="599" 
d="M157 37c-39 37 -58 84 -58 139s19 102 58 140c38 38 85 57 142 57s104 -19 143 -57s58 -85 58 -140s-19 -102 -58 -139c-39 -38 -86 -57 -143 -57s-104 19 -142 57zM157 644c-39 37 -58 84 -58 139s19 102 58 140c38 38 85 57 142 57s104 -19 143 -57s58 -85 58 -140
s-19 -102 -58 -139c-39 -38 -86 -57 -143 -57s-104 19 -142 57z" />
    <glyph glyph-name="semicolon" unicode=";" horiz-adv-x="630" 
d="M319 -263h-296l142 516h364zM191 644c-39 37 -58 84 -58 139s19 102 58 140c38 38 85 57 142 57s104 -19 143 -57s58 -85 58 -140s-19 -102 -58 -139c-39 -38 -86 -57 -143 -57s-104 19 -142 57z" />
    <glyph glyph-name="less" unicode="&#x3c;" horiz-adv-x="1277" 
d="M1155 420v-370l-1086 492v277l1086 488v-371l-597 -255c40 -17 131 -57 272 -118s249 -109 325 -143z" />
    <glyph glyph-name="equal" unicode="=" horiz-adv-x="1309" 
d="M1205 625v-330h-1101v330h1101zM104 736v329h1101v-329h-1101z" />
    <glyph glyph-name="greater" unicode="&#x3e;" horiz-adv-x="1277" 
d="M1208 818v-277l-1086 -488v371l597 255c-40 17 -130 57 -271 119c-141 61 -250 109 -326 142v370z" />
    <glyph glyph-name="question" unicode="?" horiz-adv-x="1044" 
d="M327 892l-302 136c81 224 264 350 507 350c133 0 243 -37 329 -110s129 -169 129 -287c0 -300 -338 -395 -348 -544h-292c-5 23 -8 48 -8 75c0 91 45 171 100 223c27 25 55 49 83 72c55 44 99 93 99 144c0 61 -45 98 -117 98s-140 -58 -180 -157zM645 37
c-39 -38 -86 -57 -143 -57s-104 19 -142 57c-39 37 -58 84 -58 139s19 102 58 140c38 38 85 57 142 57s104 -19 143 -57s58 -85 58 -140s-19 -102 -58 -139z" />
    <glyph glyph-name="at" unicode="@" horiz-adv-x="1847" 
d="M924 -324c-282 -2 -542 130 -700 339c-109 139 -172 324 -172 524c-2 312 147 567 368 713c147 101 331 155 524 155c112 0 220 -21 323 -63s192 -99 268 -171s137 -159 182 -261s68 -210 68 -324c0 -158 -32 -282 -95 -371c-64 -90 -143 -135 -238 -136
c-139 0 -235 52 -290 155c-69 -110 -174 -165 -315 -165c-118 0 -216 44 -293 131s-116 196 -116 326c0 131 37 241 111 329c73 87 167 131 281 131c99 0 176 -34 229 -101l16 78h310v-600c0 -60 27 -103 83 -103c94 0 134 137 134 326c0 119 -28 227 -85 325
s-137 175 -239 232c-103 57 -217 85 -343 85c-415 5 -710 -284 -704 -693c0 -128 31 -244 92 -349s144 -186 250 -246c105 -59 222 -88 351 -88c145 0 283 37 414 112l70 -153c-161 -88 -305 -137 -484 -137zM919 694c-93 0 -154 -66 -154 -165c0 -97 61 -163 154 -163
c89 0 150 66 150 163c0 99 -61 165 -150 165z" />
    <glyph glyph-name="A" unicode="A" horiz-adv-x="1487" 
d="M498 227l-88 -227h-426l522 1358h476l521 -1358h-426l-88 227h-491zM899 528l-155 454l-156 -454h311z" />
    <glyph glyph-name="B" unicode="B" horiz-adv-x="1337" 
d="M841 0h-691v1358h646c131 0 236 -32 317 -97s121 -154 121 -265c0 -134 -64 -237 -192 -309c154 -57 231 -162 231 -316c0 -106 -39 -194 -117 -265s-183 -106 -315 -106zM549 532v-215h170c77 0 129 50 129 105c0 61 -49 110 -129 110h-170zM549 1044v-216h156
c73 0 118 49 118 109c0 56 -50 107 -126 107h-148z" />
    <glyph glyph-name="C" unicode="C" horiz-adv-x="1421" 
d="M790 -20c-141 0 -267 31 -378 92s-198 144 -259 251s-92 226 -92 358s31 251 92 357s148 189 259 250c111 60 237 90 378 90c127 0 243 -31 349 -92c106 -62 187 -145 242 -248l-290 -201c-67 128 -168 192 -301 192c-99 0 -177 -32 -236 -96s-89 -148 -89 -252
c0 -103 30 -188 90 -253c60 -66 138 -99 235 -99c137 0 244 65 320 194l285 -199c-50 -101 -131 -183 -243 -247c-113 -65 -233 -97 -362 -97z" />
    <glyph glyph-name="D" unicode="D" horiz-adv-x="1502" 
d="M748 0h-598v1358h598c94 0 184 -18 270 -53c85 -36 159 -84 221 -144c123 -121 201 -296 201 -481c0 -92 -18 -180 -54 -264c-37 -84 -86 -156 -147 -217c-62 -61 -136 -109 -221 -145c-86 -36 -176 -54 -270 -54zM727 1037h-178v-717h175c90 0 165 36 224 107
s88 155 88 253s-29 182 -87 252s-132 105 -222 105z" />
    <glyph glyph-name="E" unicode="E" horiz-adv-x="1213" 
d="M1152 0h-1002v1358h992v-320h-594v-188h521v-319h-521v-212h604v-319z" />
    <glyph glyph-name="F" unicode="F" horiz-adv-x="1199" 
d="M549 0h-399v1358h1019v-319h-620v-200h486v-320h-486v-519z" />
    <glyph glyph-name="G" unicode="G" horiz-adv-x="1500" 
d="M61 680c0 199 76 376 203 500c127 123 315 198 526 198c119 0 229 -27 331 -82s182 -130 241 -225l-290 -201c-60 104 -161 159 -282 159c-99 0 -177 -32 -236 -96s-89 -148 -89 -252c0 -103 30 -188 90 -253c60 -66 138 -99 235 -99c128 0 217 55 252 160h-298v292h700
c3 -38 5 -81 5 -128c0 -206 -61 -370 -183 -491c-123 -121 -281 -182 -476 -182c-211 0 -399 76 -526 200s-203 303 -203 500z" />
    <glyph glyph-name="H" unicode="H" horiz-adv-x="1616" 
d="M150 0v1358h399v-506h518v506h399v-1358h-399v533h-518v-533h-399z" />
    <glyph glyph-name="I" unicode="I" horiz-adv-x="699" 
d="M150 1358h399v-1358h-399v1358z" />
    <glyph glyph-name="J" unicode="J" horiz-adv-x="1119" 
d="M-20 232l251 239c57 -95 128 -142 213 -142c84 0 139 64 139 160v869h399v-902c0 -145 -47 -260 -140 -346c-93 -87 -220 -130 -381 -130c-211 0 -372 84 -481 252z" />
    <glyph glyph-name="K" unicode="K" horiz-adv-x="1484" 
d="M549 0h-399v1358h399v-501l463 501h478l-523 -556l546 -802h-467l-354 554l-143 -148v-406z" />
    <glyph glyph-name="L" unicode="L" horiz-adv-x="1208" 
d="M549 318h652v-318h-1051v1358h399v-1040z" />
    <glyph glyph-name="M" unicode="M" horiz-adv-x="1841" 
d="M544 0h-394v1358h417l353 -781l354 781h417v-1358h-394v676l-258 -599h-237l-258 599v-676z" />
    <glyph glyph-name="N" unicode="N" horiz-adv-x="1592" 
d="M538 0h-388v1358h325l579 -725v725h388v-1358h-311l-593 727v-727z" />
    <glyph glyph-name="O" unicode="O" horiz-adv-x="1560" 
d="M783 -20c-208 0 -391 74 -518 196s-203 301 -203 505c-6 405 307 703 721 697c205 0 389 -72 514 -194s201 -301 201 -504c0 -204 -76 -383 -201 -505s-309 -195 -514 -195zM467 680c0 -103 29 -186 88 -249c59 -64 135 -96 230 -96c93 0 167 32 224 96
c57 63 85 146 85 249c0 101 -28 183 -85 246s-132 94 -224 94c-95 0 -171 -31 -230 -94s-88 -145 -88 -246z" />
    <glyph glyph-name="P" unicode="P" horiz-adv-x="1332" 
d="M549 426v-426h-399v1358h675c259 5 482 -197 478 -463c0 -133 -46 -244 -139 -334s-206 -135 -339 -135h-276zM759 1035h-210v-286h210c41 0 75 15 101 44c25 29 38 63 38 102c0 80 -54 140 -139 140z" />
    <glyph glyph-name="Q" unicode="Q" horiz-adv-x="1561" 
d="M829 -20c-208 0 -391 74 -518 196s-203 301 -203 505c-6 405 307 703 721 697c205 0 389 -72 514 -194s201 -301 201 -504c0 -212 -78 -393 -217 -520l113 -156l-251 -169l-124 179c-75 -23 -154 -34 -236 -34zM513 680c0 -103 29 -186 88 -249c59 -64 135 -96 230 -96
c9 0 15 0 20 1l-117 165l231 155l125 -178c33 57 50 125 50 202c0 101 -28 183 -85 246s-132 94 -224 94c-95 0 -171 -31 -230 -94s-88 -145 -88 -246z" />
    <glyph glyph-name="R" unicode="R" horiz-adv-x="1375" 
d="M547 455v-455h-397v1358h685c134 0 247 -42 340 -127c92 -85 138 -192 138 -323c0 -180 -95 -325 -244 -401l275 -508h-425l-239 456h-133zM768 1035h-221v-270h221c41 0 75 14 101 43c25 28 38 61 38 100c0 73 -54 127 -139 127z" />
    <glyph glyph-name="S" unicode="S" horiz-adv-x="1270" 
d="M66 294l285 199c80 -119 192 -183 317 -183c87 0 153 38 153 89c0 28 -15 50 -44 65s-89 35 -178 62c-10 3 -19 7 -30 9c-77 23 -117 35 -187 66c-68 29 -110 56 -158 100c-70 63 -106 145 -109 262c0 82 25 155 75 220c49 64 113 113 192 146c78 33 162 49 252 49
c244 0 411 -107 534 -298l-271 -188c-56 93 -155 157 -267 157c-71 0 -129 -30 -129 -85c0 -57 63 -88 183 -123c111 -31 187 -57 271 -95c42 -19 77 -40 106 -62c89 -69 146 -156 146 -286c0 -133 -70 -247 -175 -314s-235 -104 -367 -104c-267 0 -478 114 -599 314z" />
    <glyph glyph-name="T" unicode="T" horiz-adv-x="1187" 
d="M389 1032h-387v326h1183v-326h-397v-1032h-399v1032z" />
    <glyph glyph-name="U" unicode="U" horiz-adv-x="1451" 
d="M135 497v861h399v-832c0 -135 80 -206 191 -206s192 71 192 206v832h399v-861c0 -351 -244 -517 -591 -517c-236 0 -413 71 -514 228c-51 79 -76 175 -76 289z" />
    <glyph glyph-name="V" unicode="V" horiz-adv-x="1391" 
d="M934 0h-474l-470 1358h428l279 -936l276 936h428z" />
    <glyph glyph-name="W" unicode="W" horiz-adv-x="1991" 
d="M825 0h-466l-355 1358h400l210 -892l222 873h320l221 -873l210 892h400l-355 -1358h-466l-170 582z" />
    <glyph glyph-name="X" unicode="X" horiz-adv-x="1414" 
d="M707 402l-272 -402h-456l499 694l-474 664h455l248 -363l248 363h456l-475 -664l499 -694h-456z" />
    <glyph glyph-name="Y" unicode="Y" horiz-adv-x="1430" 
d="M518 510l-529 848h472l261 -515l265 515h454l-525 -848v-510h-398v510z" />
    <glyph glyph-name="Z" unicode="Z" horiz-adv-x="1234" 
d="M1183 0h-1129v280l632 758h-616v320h1102v-288l-626 -741h637v-329z" />
    <glyph glyph-name="bracketleft" unicode="[" horiz-adv-x="851" 
d="M837 -137v-263h-690v1953h690v-263h-325v-1427h325z" />
    <glyph glyph-name="backslash" unicode="\" horiz-adv-x="1146" 
d="M1132 -400h-358l-762 1929h359z" />
    <glyph glyph-name="bracketright" unicode="]" horiz-adv-x="851" 
d="M704 1553v-1953h-690v263h325v1427h-325v263h690z" />
    <glyph glyph-name="asciicircum" unicode="^" horiz-adv-x="1295" 
d="M429 510h-400l482 848h277l478 -848h-401l-215 429z" />
    <glyph glyph-name="underscore" unicode="_" horiz-adv-x="1148" 
d="M1086 -46v-260h-1024v260h1024z" />
    <glyph glyph-name="grave" unicode="`" horiz-adv-x="847" 
d="M723 1473h-312l-287 334h432z" />
    <glyph glyph-name="a" unicode="a" horiz-adv-x="1119" 
d="M253 573l-191 219c40 45 101 88 182 128s169 60 263 60c145 0 264 -34 356 -103c91 -69 143 -188 143 -343v-534h-354v98c-25 -39 -62 -68 -110 -88s-98 -30 -149 -30c-97 0 -176 27 -236 81c-61 54 -91 123 -91 208c0 63 20 117 60 163c39 45 88 78 147 99
c58 20 120 30 187 30c61 0 116 -6 165 -19v3c0 72 -56 123 -153 123c-78 0 -151 -32 -219 -95zM417 291c0 -39 35 -64 83 -64c73 0 125 51 125 120c-28 11 -60 16 -97 16c-64 0 -111 -28 -111 -72z" />
    <glyph glyph-name="b" unicode="b" horiz-adv-x="1265" 
d="M508 0h-382v1408h384v-534c62 71 150 106 263 106c126 0 230 -48 312 -143s123 -215 123 -358s-41 -261 -123 -356s-186 -143 -312 -143c-111 0 -197 36 -256 109zM505 480c0 -105 68 -178 168 -178c103 0 172 73 172 178c0 107 -69 180 -172 180
c-100 0 -168 -73 -168 -180z" />
    <glyph glyph-name="c" unicode="c" horiz-adv-x="1070" 
d="M55 480c-6 280 221 503 525 499c204 0 366 -89 449 -249l-278 -190c-37 79 -92 118 -164 118c-47 0 -86 -17 -119 -50c-33 -34 -50 -77 -50 -128c0 -55 17 -98 50 -131s74 -49 123 -49c72 0 128 37 169 110l274 -192c-41 -74 -101 -132 -180 -174
c-79 -43 -170 -64 -273 -64c-153 0 -278 48 -377 143s-149 214 -149 357z" />
    <glyph glyph-name="d" unicode="d" horiz-adv-x="1265" 
d="M57 479c0 143 41 263 123 358s186 143 312 143c113 0 201 -35 263 -106v534h384v-1408h-382l-9 89c-59 -73 -145 -109 -256 -109c-126 0 -230 48 -312 143s-123 213 -123 356zM592 660c-103 0 -172 -73 -172 -180c0 -105 69 -178 172 -178c100 0 168 73 168 178
c0 107 -68 180 -168 180z" />
    <glyph glyph-name="e" unicode="e" horiz-adv-x="1092" 
d="M56 482c-6 279 207 502 498 498c256 6 485 -188 481 -449c0 -39 -5 -80 -15 -123h-605c11 -88 87 -132 182 -132c81 0 152 38 199 102l223 -201c-25 -40 -78 -85 -151 -126s-181 -71 -292 -71c-153 0 -277 47 -374 141c-97 93 -146 214 -146 361zM555 700
c-37 0 -69 -12 -95 -35c-27 -23 -42 -51 -45 -83h271c0 31 -13 59 -38 83c-25 23 -56 35 -93 35z" />
    <glyph glyph-name="f" unicode="f" horiz-adv-x="782" 
d="M163 0v658h-146v302h145v74c0 187 101 394 444 394c77 0 153 -11 228 -32l-39 -301c-39 19 -85 29 -138 29c-79 0 -135 -33 -135 -112v-52h249v-302h-234v-658h-374z" />
    <glyph glyph-name="g" unicode="g" horiz-adv-x="1265" 
d="M61 489c0 141 41 258 123 351s186 140 312 140c111 0 196 -36 256 -109l9 89h382v-913c-1 -197 -115 -329 -269 -398c-105 -48 -218 -69 -334 -69c-108 0 -202 19 -283 57s-143 81 -186 128l197 232c71 -69 158 -104 260 -104c60 0 112 16 157 47s67 70 67 117v32
c-58 -59 -143 -89 -256 -89c-126 0 -230 47 -312 140s-123 210 -123 349zM596 660c-103 0 -172 -69 -172 -170c0 -100 69 -168 172 -168c100 0 168 68 168 168c0 101 -68 170 -168 170z" />
    <glyph glyph-name="h" unicode="h" horiz-adv-x="1240" 
d="M510 530v-530h-384v1408h384v-514c64 57 155 86 273 86c102 0 185 -31 249 -93c63 -62 95 -143 95 -243v-644h-384v530c0 68 -48 115 -117 115s-116 -47 -116 -115z" />
    <glyph glyph-name="i" unicode="i" horiz-adv-x="636" 
d="M510 960v-960h-384v960h384zM103 1256c0 63 19 115 58 154s89 59 152 59s115 -20 154 -59s59 -91 59 -154s-20 -113 -59 -152s-91 -58 -154 -58s-113 19 -152 58s-58 89 -58 152z" />
    <glyph glyph-name="j" unicode="j" horiz-adv-x="599" 
d="M81 -420c-98 0 -178 16 -241 47l32 288c36 -15 76 -23 119 -23c69 0 109 42 109 127v941h373v-978c0 -170 -80 -282 -179 -343c-69 -42 -141 -59 -213 -59zM309 1046c-63 0 -113 19 -152 58s-58 89 -58 152s19 115 58 154s89 59 152 59s115 -20 154 -59s59 -91 59 -154
s-20 -113 -59 -152s-91 -58 -154 -58z" />
    <glyph glyph-name="k" unicode="k" horiz-adv-x="1211" 
d="M126 0v1408h385v-701l235 253h470l-387 -397l402 -563h-456l-214 338l-50 -52v-286h-385z" />
    <glyph glyph-name="l" unicode="l" horiz-adv-x="636" 
d="M126 1408h384v-1408h-384v1408z" />
    <glyph glyph-name="m" unicode="m" horiz-adv-x="1847" 
d="M126 0v960h345l15 -92c63 75 163 112 300 112c60 0 117 -13 170 -39s90 -63 112 -112c75 101 180 151 313 151c80 0 160 -24 232 -75s121 -144 121 -261v-644h-383v530c0 68 -48 115 -117 115s-116 -47 -116 -115v-530h-375v530c0 68 -48 115 -117 115
s-116 -47 -116 -115v-530h-384z" />
    <glyph glyph-name="n" unicode="n" horiz-adv-x="1240" 
d="M510 530v-530h-384v960h350l9 -92c56 68 165 112 298 112c102 0 185 -31 249 -93c63 -62 95 -143 95 -243v-644h-384v530c0 68 -48 115 -117 115s-116 -47 -116 -115z" />
    <glyph glyph-name="o" unicode="o" horiz-adv-x="1168" 
d="M967 119c-98 -93 -226 -139 -383 -139s-285 46 -382 139c-98 92 -147 212 -147 361s49 269 147 362c97 92 225 138 382 138s285 -46 383 -138c97 -93 146 -213 146 -362s-49 -269 -146 -361zM464 610c-31 -33 -46 -77 -46 -130s15 -97 46 -130s71 -50 120 -50
s89 17 120 50s46 77 46 130s-15 97 -46 130s-71 49 -120 49s-89 -16 -120 -49z" />
    <glyph glyph-name="p" unicode="p" horiz-adv-x="1265" 
d="M126 -400v1360h382l9 -89c59 73 145 109 256 109c126 0 230 -47 312 -142s123 -214 123 -357s-41 -263 -123 -358s-186 -143 -312 -143c-113 0 -201 35 -263 106v-486h-384zM673 658c-100 0 -168 -73 -168 -178c0 -107 68 -180 168 -180c103 0 172 73 172 180
c0 105 -69 178 -172 178z" />
    <glyph glyph-name="q" unicode="q" horiz-adv-x="1261" 
d="M57 481c0 143 41 262 123 357s186 142 312 142c120 0 212 -36 276 -109l9 89h362v-1360h-384v486c-62 -71 -150 -106 -263 -106c-126 0 -230 48 -312 143s-123 215 -123 358zM420 480c0 -107 69 -180 172 -180c100 0 168 73 168 180c0 105 -68 178 -168 178
c-103 0 -172 -73 -172 -178z" />
    <glyph glyph-name="r" unicode="r" horiz-adv-x="872" 
d="M510 0h-384v960h350l14 -131c44 97 142 151 258 151c36 0 74 -6 114 -18l-23 -322c-37 14 -74 21 -113 21c-137 0 -216 -81 -216 -230v-431z" />
    <glyph glyph-name="s" unicode="s" horiz-adv-x="986" 
d="M52 161l209 197c55 -61 143 -99 234 -99c52 0 85 16 85 41c5 17 -27 29 -63 40c-11 3 -29 7 -54 14c-25 6 -47 12 -67 18c-191 55 -306 143 -306 299c0 89 38 163 113 222c75 58 171 87 288 87c169 0 301 -55 395 -166l-197 -202c-22 25 -50 47 -85 64s-68 25 -99 25
c-53 0 -79 -12 -79 -35c0 -19 20 -31 59 -43c23 -8 39 -12 72 -22c17 -5 32 -10 45 -14c96 -29 159 -58 223 -102c64 -45 98 -108 98 -187c0 -94 -41 -170 -123 -229c-83 -59 -183 -89 -302 -89c-194 0 -343 60 -446 181z" />
    <glyph glyph-name="t" unicode="t" horiz-adv-x="849" 
d="M157 369v289h-144v302h143v308h361v-308h284v-302h-270v-225c0 -92 43 -127 122 -127c59 0 114 11 167 33l20 -299c-28 -16 -68 -30 -120 -42c-53 -12 -105 -18 -158 -18c-230 0 -405 102 -405 389z" />
    <glyph glyph-name="u" unicode="u" horiz-adv-x="1240" 
d="M113 316v644h384v-530c0 -68 48 -115 117 -115s116 47 116 115v530h384v-960h-350l-9 92c-56 -68 -165 -112 -298 -112c-102 0 -185 31 -248 93c-64 62 -96 143 -96 243z" />
    <glyph glyph-name="v" unicode="v" horiz-adv-x="1155" 
d="M789 0h-423l-361 960h402l170 -595l171 595h402z" />
    <glyph glyph-name="w" unicode="w" horiz-adv-x="1612" 
d="M286 0l-273 960h377l135 -565l158 541h246l157 -541l136 565h377l-273 -960h-407l-114 380l-112 -380h-407z" />
    <glyph glyph-name="x" unicode="x" horiz-adv-x="1114" 
d="M341 490l-342 470h429l129 -211l124 211h426l-334 -470l342 -490h-411l-147 240l-145 -240h-406z" />
    <glyph glyph-name="y" unicode="y" horiz-adv-x="1153" 
d="M400 10l-402 950h398l181 -572l180 572h398l-428 -1078c-81 -205 -212 -302 -429 -302c-97 0 -178 18 -243 54l54 281c39 -19 78 -29 118 -29c84 0 144 31 173 124z" />
    <glyph glyph-name="z" unicode="z" horiz-adv-x="941" 
d="M898 0h-841v230l376 424h-371v306h806v-228l-379 -426h409v-306z" />
    <glyph glyph-name="braceleft" unicode="{" horiz-adv-x="815" 
d="M102 423h-92v295h92c85 0 113 35 113 118v316c0 276 149 423 442 423c47 0 94 -3 143 -10v-271c-10 1 -23 1 -38 1c-81 0 -133 -12 -157 -36c-24 -25 -36 -77 -36 -158v-289c0 -62 -11 -111 -32 -146c-21 -36 -56 -68 -105 -95c49 -28 84 -60 105 -95
c21 -36 32 -85 32 -147v-256c0 -84 13 -142 38 -173s77 -47 155 -47c15 0 28 0 38 1v-267c-47 -7 -94 -10 -141 -10c-295 0 -444 156 -444 436v292c0 83 -28 118 -113 118z" />
    <glyph glyph-name="bar" unicode="|" horiz-adv-x="625" 
d="M147 1758h331v-2158h-331v2158z" />
    <glyph glyph-name="braceright" unicode="}" horiz-adv-x="815" 
d="M15 1294v271c49 7 96 10 143 10c293 0 442 -147 442 -423v-316c0 -83 28 -118 113 -118h92v-295h-92c-85 0 -113 -35 -113 -118v-292c0 -280 -149 -436 -444 -436c-47 0 -94 3 -141 10v267c10 -1 23 -1 38 -1c78 0 130 16 155 47s38 89 38 173v256c0 62 11 111 32 147
c21 35 56 67 105 95c-49 27 -84 59 -105 95c-21 35 -32 84 -32 146v289c0 81 -12 133 -36 158c-24 24 -76 36 -157 36c-15 0 -28 0 -38 -1z" />
    <glyph glyph-name="asciitilde" unicode="~" horiz-adv-x="1420" 
d="M232 340l-168 257c59 71 126 130 201 175s149 67 224 67c96 0 190 -35 243 -68c52 -33 123 -68 186 -68c52 0 98 12 139 35c40 23 84 59 133 108l166 -256c-59 -71 -126 -130 -201 -175s-149 -68 -224 -68c-97 0 -191 35 -243 68s-123 68 -186 68c-53 0 -99 -12 -139 -35
s-84 -59 -131 -108z" />
    <glyph glyph-name="uni00A0" unicode="&#xa0;" horiz-adv-x="566" 
 />
    <glyph glyph-name="exclamdown" unicode="&#xa1;" horiz-adv-x="621" 
d="M504 -395h-396l70 897h256zM167 644c-39 37 -58 84 -58 139s19 102 58 140c38 38 85 57 142 57s104 -19 143 -57s58 -85 58 -140s-19 -102 -58 -139c-39 -38 -86 -57 -143 -57s-104 19 -142 57z" />
    <glyph glyph-name="cent" unicode="&#xa2;" horiz-adv-x="1129" 
d="M203 344c-85 92 -128 204 -128 336s42 244 127 336s195 145 332 160v165h131v-165c173 -17 311 -103 384 -246l-278 -190c-27 55 -62 91 -106 108v-340c46 14 84 48 115 102l274 -192c-73 -132 -213 -218 -389 -235v-183h-131v184c-135 14 -246 67 -331 160zM534 516v325
c-57 -29 -96 -89 -96 -161c0 -77 37 -136 96 -164z" />
    <glyph glyph-name="sterling" unicode="&#xa3;" horiz-adv-x="1263" 
d="M1149 318v-319h-1087v257c120 64 163 134 162 221l-1 131h-154v179h153l-1 107c-1 151 48 269 145 355s223 129 378 129c229 0 398 -110 482 -313l-274 -159c-47 105 -112 157 -194 157c-48 0 -87 -16 -117 -47c-31 -31 -46 -71 -46 -120v-109h297v-179h-297v-92
c0 -56 0 -83 -22 -133c-11 -25 -28 -47 -49 -65h625z" />
    <glyph glyph-name="currency" unicode="&#xa4;" horiz-adv-x="1274" 
d="M238 887l-167 164l171 171l165 -165c71 41 148 62 229 62c83 0 161 -21 233 -62l163 165l171 -171l-165 -164c41 -69 61 -144 61 -225c0 -85 -22 -162 -66 -231l170 -170l-171 -171l-172 174c-71 -38 -145 -57 -224 -57c-78 0 -151 19 -220 57l-174 -174l-171 171
l170 170c-42 71 -63 148 -63 231c0 82 20 157 60 225zM476 662c0 -44 16 -81 47 -112s69 -46 113 -46c45 0 84 15 116 46s48 68 48 112c0 45 -16 83 -48 115c-32 31 -71 47 -116 47c-44 0 -82 -16 -113 -47c-31 -32 -47 -70 -47 -115z" />
    <glyph glyph-name="yen" unicode="&#xa5;" horiz-adv-x="1485" 
d="M468 635l-451 723h472l261 -515l265 515h454l-448 -723h173v-130h-250v-107h250v-130h-250v-268h-398v268h-254v130h254v107h-254v130h176z" />
    <glyph glyph-name="brokenbar" unicode="&#xa6;" horiz-adv-x="625" 
d="M478 1758v-848h-331v848h331zM147 -401v848h331v-848h-331z" />
    <glyph glyph-name="section" unicode="&#xa7;" horiz-adv-x="1147" 
d="M590 -341c-244 0 -437 101 -532 293l254 174c71 -110 161 -165 269 -165c75 0 138 32 138 83c4 28 -29 52 -62 70c-20 11 -66 25 -90 33c-12 3 -29 8 -52 15c-63 18 -83 25 -142 45c-27 9 -49 18 -66 27c-34 16 -84 43 -111 68c-27 24 -59 60 -75 97s-27 85 -27 140
c0 85 39 160 116 225c-65 61 -97 140 -97 235c0 109 44 200 133 272c88 71 199 107 334 107c113 0 213 -24 300 -72c87 -49 153 -113 198 -194l-253 -181c-64 97 -143 145 -238 145c-69 0 -126 -27 -126 -76c0 -53 54 -80 163 -112c60 -18 111 -34 152 -49s82 -34 124 -56
c42 -23 76 -47 101 -72c50 -51 84 -124 84 -212c0 -96 -40 -172 -119 -227c66 -60 99 -137 99 -231c0 -254 -246 -382 -475 -382zM533 609c-16 5 -52 17 -68 21c-25 -21 -37 -45 -37 -74c0 -55 57 -82 164 -114c41 -12 77 -23 107 -33c29 21 44 48 44 79c0 37 -47 69 -98 87
c-25 9 -56 18 -93 29c-9 2 -15 4 -19 5z" />
    <glyph glyph-name="dieresis" unicode="&#xa8;" horiz-adv-x="970" 
d="M513 1650c0 100 69 168 166 168c100 0 169 -69 169 -168s-69 -166 -169 -166c-97 0 -166 67 -166 166zM122 1650c0 100 68 168 167 168c98 0 168 -70 168 -168c0 -99 -69 -166 -168 -166s-167 67 -167 166z" />
    <glyph glyph-name="copyright" unicode="&#xa9;" horiz-adv-x="1624" 
d="M83 680c0 97 20 190 61 277c40 87 93 161 160 222c66 61 143 110 232 146c89 35 180 53 275 53c128 0 248 -30 359 -90c111 -61 201 -145 269 -253s102 -226 102 -355c0 -98 -20 -191 -60 -278c-40 -88 -93 -162 -159 -223c-67 -61 -144 -110 -233 -145
c-89 -36 -182 -54 -278 -54s-188 18 -277 54s-167 85 -233 147c-66 61 -119 136 -158 223c-40 87 -60 179 -60 276zM179 680c0 -171 75 -330 189 -438c114 -109 276 -177 443 -177s329 69 444 178s190 269 190 437c0 112 -29 215 -87 310c-59 95 -137 169 -234 224
c-97 54 -202 81 -313 81s-215 -27 -312 -81c-97 -55 -174 -129 -232 -224c-59 -95 -88 -198 -88 -310zM409 678c0 112 38 206 115 282c77 75 174 113 291 113c140 0 261 -71 329 -187l-70 -49c-63 99 -149 148 -260 148c-89 0 -163 -29 -222 -88s-89 -132 -89 -219
c0 -85 29 -156 88 -215s132 -88 220 -88c109 0 208 59 267 148l69 -49c-34 -57 -81 -103 -141 -136c-61 -34 -126 -51 -196 -51c-114 0 -209 38 -286 113s-115 168 -115 278z" />
    <glyph glyph-name="ordfeminine" unicode="&#xaa;" horiz-adv-x="791" 
d="M105 934c0 55 23 100 69 134s106 51 181 51c48 0 88 -7 121 -21v6c0 49 -47 85 -118 85c-59 0 -108 -22 -149 -65l-96 146c26 29 62 55 109 76s96 32 148 32c93 0 168 -21 223 -64s82 -101 82 -174v-378h-189v56c-36 -40 -99 -68 -170 -68c-63 0 -114 17 -153 51
s-58 78 -58 133zM680 490h-569v165h569v-165zM306 948c0 -28 24 -45 60 -45c27 0 53 8 76 25s34 33 34 48c-21 14 -52 21 -93 21c-48 0 -77 -18 -77 -49z" />
    <glyph glyph-name="guillemotleft" unicode="&#xab;" horiz-adv-x="1213" 
d="M1148 86h-335l-272 395l272 394h335l-254 -394zM339 86l-272 395l272 394h335l-254 -394l254 -395h-335z" />
    <glyph glyph-name="logicalnot" unicode="&#xac;" horiz-adv-x="1292" 
d="M1183 342h-386v332h-750v326h1136v-658z" />
    <glyph glyph-name="uni00AD" unicode="&#xad;" horiz-adv-x="890" 
d="M100 668h690v-274h-690v274z" />
    <glyph glyph-name="registered" unicode="&#xae;" horiz-adv-x="1224" 
d="M609 541c-295 -6 -539 232 -533 514c-6 283 238 519 533 513c296 6 546 -230 540 -513c6 -283 -244 -520 -540 -514zM609 1488c-124 0 -229 -42 -314 -125c-86 -84 -129 -187 -129 -308s43 -222 129 -305c85 -83 190 -125 314 -125c125 0 232 42 319 125s131 184 131 305
s-43 224 -130 308c-87 83 -194 125 -320 125zM504 805h-85v506h216c107 0 175 -60 175 -155c0 -69 -38 -121 -98 -140l123 -211h-99l-110 197h-122v-197zM504 1235v-157h129c57 0 89 30 89 78s-32 79 -89 79h-129z" />
    <glyph glyph-name="macron" unicode="&#xaf;" horiz-adv-x="839" 
d="M124 1720h591v-234h-591v234z" />
    <glyph glyph-name="degree" unicode="&#xb0;" horiz-adv-x="824" 
d="M410 678c-105 0 -191 32 -257 96s-99 147 -99 250c0 105 33 190 99 255s152 98 257 98c107 0 194 -33 261 -98c66 -65 99 -150 99 -255c0 -103 -33 -186 -100 -250s-153 -96 -260 -96zM333 1108c-20 -21 -30 -49 -30 -83s10 -61 30 -82c19 -21 45 -32 76 -32
c67 0 111 46 111 114s-46 115 -111 115c-31 0 -57 -11 -76 -32z" />
    <glyph glyph-name="plusminus" unicode="&#xb1;" horiz-adv-x="1283" 
d="M451 431v307h-366v326h366v295h381v-295h365v-326h-365v-307h-381zM1193 291v-313h-1100v313h1100z" />
    <glyph glyph-name="twosuperior" unicode="&#xb2;" horiz-adv-x="725" 
d="M263 1062l-184 113c21 59 62 108 121 146s125 57 196 57c94 0 170 -24 227 -73s86 -114 86 -194c0 -56 -23 -114 -51 -154c-14 -21 -33 -43 -56 -66c-51 -50 -72 -65 -130 -110c-27 -21 -47 -37 -60 -48h303v-199h-607v85c0 107 71 190 186 282c71 57 116 95 135 116
c26 29 39 55 39 79c0 45 -38 72 -81 72c-52 0 -99 -38 -124 -106z" />
    <glyph glyph-name="threesuperior" unicode="&#xb3;" horiz-adv-x="727" 
d="M379 514c-67 0 -129 17 -186 52s-97 78 -118 131l161 112c3 -5 6 -10 23 -32c9 -11 18 -21 28 -29c20 -17 55 -33 88 -33c52 0 91 33 91 77c0 47 -30 78 -75 78h-120v160h120c37 0 70 36 70 75c0 41 -36 74 -83 74c-60 0 -106 -33 -138 -100l-161 110
c24 55 65 101 123 136s120 53 187 53c95 0 171 -23 230 -70c58 -47 87 -108 87 -184s-50 -145 -125 -172c79 -25 131 -103 131 -186c0 -75 -31 -136 -92 -182c-61 -47 -142 -70 -241 -70z" />
    <glyph glyph-name="acute" unicode="&#xb4;" horiz-adv-x="847" 
d="M291 1807h432l-287 -334h-312z" />
    <glyph glyph-name="paragraph" unicode="&#xb6;" horiz-adv-x="1409" 
d="M590 382h-36c-150 0 -275 45 -374 136s-149 208 -149 352s50 261 149 352s224 136 374 136h775v-260h-486v-1498h-253v782zM1203 -400h-253v1394h253v-1394z" />
    <glyph glyph-name="periodcentered" unicode="&#xb7;" horiz-adv-x="583" 
d="M149 399c-39 37 -58 84 -58 139s19 102 58 140c38 38 85 57 142 57s104 -19 143 -57s58 -85 58 -140s-19 -102 -58 -139c-39 -38 -86 -57 -143 -57s-104 19 -142 57z" />
    <glyph glyph-name="cedilla" unicode="&#xb8;" horiz-adv-x="680" 
d="M244 -481c-69 0 -126 10 -170 30v182c37 -15 79 -22 126 -22c71 0 114 21 114 54c0 35 -45 55 -120 55h-67l82 209h177l-30 -101c140 -20 218 -90 218 -199c0 -134 -162 -211 -330 -208z" />
    <glyph glyph-name="onesuperior" unicode="&#xb9;" horiz-adv-x="526" 
d="M446 534h-234v625h-186v199h420v-824z" />
    <glyph glyph-name="ordmasculine" unicode="&#xba;" horiz-adv-x="865" 
d="M100 1049c0 97 31 176 92 237s140 91 239 91s180 -30 242 -91c61 -61 92 -140 92 -237c0 -95 -31 -173 -92 -232c-62 -59 -143 -89 -242 -89s-178 30 -239 89s-92 137 -92 232zM125 480v166h621v-166h-621zM430 1161c-61 0 -103 -46 -103 -111s42 -110 103 -110
c64 0 107 45 107 110c0 67 -43 111 -107 111z" />
    <glyph glyph-name="guillemotright" unicode="&#xbb;" horiz-adv-x="1213" 
d="M1146 480l-272 -394h-335l254 394l-254 395h335zM319 480l-254 395h335l272 -395l-272 -394h-335z" />
    <glyph glyph-name="onequarter" unicode="&#xbc;" horiz-adv-x="1618" 
d="M864 190v142l343 492h255v-453h111v-181h-111v-190h-228v190h-370zM332 0v26l734 1332h225v-24l-732 -1334h-227zM260 530v625h-186v199h420v-824h-234zM1234 371v204l-142 -204h142z" />
    <glyph glyph-name="onehalf" unicode="&#xbd;" horiz-adv-x="1678" 
d="M1198 528l-184 113c21 59 62 108 121 146s125 57 196 57c94 0 170 -24 227 -73s86 -114 86 -194c0 -56 -23 -114 -51 -154c-14 -21 -33 -43 -56 -66c-51 -50 -72 -65 -130 -110c-27 -21 -47 -37 -60 -48h303v-199h-607v85c0 107 71 190 186 282c71 57 116 95 135 116
c26 29 39 55 39 79c0 45 -38 72 -81 72c-52 0 -99 -38 -124 -106zM332 0v26l734 1332h225v-24l-732 -1334h-227zM260 530v625h-186v199h420v-824h-234z" />
    <glyph glyph-name="threequarters" unicode="&#xbe;" horiz-adv-x="1821" 
d="M101 703l161 112c3 -5 6 -10 23 -32c9 -11 18 -21 28 -29c20 -17 55 -33 88 -33c52 0 91 33 91 77c0 47 -30 78 -75 78h-120v160h120c37 0 70 36 70 75c0 41 -36 74 -83 74c-60 0 -106 -33 -138 -100l-161 110c24 55 65 101 123 136s120 53 187 53c95 0 171 -23 230 -70
c58 -47 87 -108 87 -184s-50 -145 -125 -172c79 -25 131 -103 131 -186c0 -75 -31 -136 -92 -182c-61 -47 -142 -70 -241 -70c-67 0 -129 17 -186 52s-97 78 -118 131zM1082 190v142l343 492h255v-453h111v-181h-111v-190h-228v190h-370zM1469 1334l-732 -1334h-227v26
l734 1332h225v-24zM1452 575l-142 -204h142v204z" />
    <glyph glyph-name="questiondown" unicode="&#xbf;" horiz-adv-x="1032" 
d="M6 -19c0 300 338 395 348 544h292c5 -23 8 -48 8 -75c0 -91 -45 -171 -100 -222c-27 -26 -55 -50 -82 -72c-56 -45 -100 -94 -100 -145c0 -61 45 -98 117 -98s140 58 180 157l302 -136c-81 -224 -264 -350 -507 -350c-133 0 -243 37 -329 110s-129 169 -129 287zM637 646
c-39 -38 -86 -57 -143 -57s-104 19 -143 57s-58 85 -58 140s19 102 58 140c39 37 86 56 143 56s104 -19 143 -56c38 -38 57 -85 57 -140s-19 -102 -57 -140z" />
    <glyph glyph-name="Agrave" unicode="&#xc0;" horiz-adv-x="1487" 
d="M498 227l-88 -227h-426l522 1358h476l521 -1358h-426l-88 227h-491zM579 1473l-287 334h432l167 -334h-312zM899 528l-155 454l-156 -454h311z" />
    <glyph glyph-name="Aacute" unicode="&#xc1;" horiz-adv-x="1487" 
d="M498 227l-88 -227h-426l522 1358h476l521 -1358h-426l-88 227h-491zM911 1473h-312l167 334h432zM899 528l-155 454l-156 -454h311z" />
    <glyph glyph-name="Acircumflex" unicode="&#xc2;" horiz-adv-x="1487" 
d="M410 0h-426l522 1358h476l521 -1358h-426l-88 227h-491zM743 1631l-104 -160h-311l287 370h257l287 -370h-312zM899 528l-155 454l-156 -454h311z" />
    <glyph glyph-name="Atilde" unicode="&#xc3;" horiz-adv-x="1487" 
d="M410 0h-426l522 1358h476l521 -1358h-426l-88 227h-491zM479 1465l-140 127c77 156 179 230 288 230c53 0 109 -23 144 -46s79 -46 112 -46c40 0 83 26 129 77l137 -117c-51 -104 -129 -177 -196 -205c-33 -15 -66 -22 -99 -22c-86 -3 -185 93 -250 89
c-40 0 -82 -29 -125 -87zM744 982l-156 -454h311z" />
    <glyph glyph-name="Adieresis" unicode="&#xc4;" horiz-adv-x="1487" 
d="M410 0h-426l522 1358h476l521 -1358h-426l-88 227h-491zM381 1650c0 100 68 168 167 168c98 0 168 -70 168 -168c0 -99 -69 -166 -168 -166s-167 67 -167 166zM772 1650c0 100 69 168 166 168c100 0 169 -69 169 -168s-69 -166 -169 -166c-97 0 -166 67 -166 166z
M744 982l-156 -454h311z" />
    <glyph glyph-name="Aring" unicode="&#xc5;" horiz-adv-x="1487" 
d="M498 227l-88 -227h-426l522 1358h476l521 -1358h-426l-88 227h-491zM512 1690c0 66 22 121 66 165c43 44 98 66 165 66c66 0 121 -22 166 -66c44 -44 66 -99 66 -165c0 -65 -22 -119 -66 -162c-45 -44 -100 -66 -166 -66c-67 0 -122 22 -165 65c-44 43 -66 98 -66 163z
M744 982l-156 -454h311zM707 1729c-21 -23 -21 -53 0 -75c20 -22 52 -22 73 0c20 22 20 52 0 75c-21 23 -53 23 -73 0z" />
    <glyph glyph-name="AE" unicode="&#xc6;" horiz-adv-x="1976" 
d="M481 227l-126 -227h-425l742 1358h1233v-320h-594v-188h521v-319h-521v-212h604v-319h-1002v227h-432zM913 1062l-288 -534h288v534z" />
    <glyph glyph-name="Ccedilla" unicode="&#xc7;" horiz-adv-x="1421" 
d="M612 -182l66 169c-184 24 -333 100 -446 229c-114 128 -171 283 -171 465c0 132 31 251 92 357s148 189 259 250c111 60 237 90 378 90c127 0 243 -31 349 -92c106 -62 187 -145 242 -248l-290 -201c-67 128 -168 192 -301 192c-99 0 -177 -32 -236 -96
s-89 -148 -89 -252c0 -103 30 -188 90 -253c60 -66 138 -99 235 -99c137 0 244 65 320 194l285 -199c-45 -91 -117 -168 -215 -230c-98 -63 -205 -100 -322 -111l-17 -57c140 -20 218 -90 218 -199c0 -134 -162 -211 -330 -208c-69 0 -126 10 -170 30v182
c37 -15 79 -22 126 -22c71 0 114 21 114 54c0 35 -45 55 -120 55h-67z" />
    <glyph glyph-name="Egrave" unicode="&#xc8;" horiz-adv-x="1213" 
d="M1152 0h-1002v1358h992v-320h-594v-188h521v-319h-521v-212h604v-319zM522 1473l-287 334h432l167 -334h-312z" />
    <glyph glyph-name="Eacute" unicode="&#xc9;" horiz-adv-x="1213" 
d="M1152 0h-1002v1358h992v-320h-594v-188h521v-319h-521v-212h604v-319zM1073 1807l-287 -334h-312l167 334h432z" />
    <glyph glyph-name="Ecircumflex" unicode="&#xca;" horiz-adv-x="1213" 
d="M1152 319v-319h-1002v1358h992v-320h-594v-188h521v-319h-521v-212h604zM545 1471h-311l287 370h257l287 -370h-312l-104 160z" />
    <glyph glyph-name="Edieresis" unicode="&#xcb;" horiz-adv-x="1213" 
d="M150 0v1358h992v-320h-594v-188h521v-319h-521v-212h604v-319h-1002zM689 1650c0 100 69 168 166 168c100 0 169 -69 169 -168s-69 -166 -169 -166c-97 0 -166 67 -166 166zM586 1530c-31 -31 -72 -46 -121 -46s-89 15 -120 46s-47 71 -47 120c0 100 68 168 167 168
c49 0 90 -16 121 -47s47 -72 47 -121s-16 -89 -47 -120z" />
    <glyph glyph-name="Igrave" unicode="&#xcc;" horiz-adv-x="699" 
d="M150 1358h399v-1358h-399v1358zM506 1473h-312l-287 334h432z" />
    <glyph glyph-name="Iacute" unicode="&#xcd;" horiz-adv-x="699" 
d="M150 1358h399v-1358h-399v1358zM361 1807h432l-287 -334h-312z" />
    <glyph glyph-name="Icircumflex" unicode="&#xce;" horiz-adv-x="699" 
d="M549 1358v-1358h-399v1358h399zM245 1471h-311l287 370h257l287 -370h-312l-104 160z" />
    <glyph glyph-name="Idieresis" unicode="&#xcf;" horiz-adv-x="699" 
d="M549 1358v-1358h-399v1358h399zM377 1650c0 100 69 168 166 168c100 0 169 -69 169 -168s-69 -166 -169 -166c-97 0 -166 67 -166 166zM-14 1650c0 100 68 168 167 168c98 0 168 -70 168 -168c0 -99 -69 -166 -168 -166s-167 67 -167 166z" />
    <glyph glyph-name="Eth" unicode="&#xd0;" horiz-adv-x="1607" 
d="M201 605h-134v184h134v569h598c94 0 184 -18 270 -53c85 -36 159 -84 221 -144c123 -121 201 -296 201 -481c0 -92 -18 -180 -54 -264c-37 -84 -86 -156 -147 -217c-62 -61 -136 -109 -221 -145c-86 -36 -176 -54 -270 -54h-598v605zM600 1037v-248h246v-184h-246v-285
h175c90 0 165 36 224 107s88 155 88 253s-29 182 -87 252s-132 105 -222 105h-178z" />
    <glyph glyph-name="Ntilde" unicode="&#xd1;" horiz-adv-x="1592" 
d="M150 0v1358h325l579 -725v725h388v-1358h-311l-593 727v-727h-388zM531 1465l-140 127c77 156 179 230 288 230c53 0 109 -23 144 -46s79 -46 112 -46c40 0 83 26 129 77l137 -117c-51 -104 -129 -177 -196 -205c-33 -15 -66 -22 -99 -22c-86 -3 -185 93 -250 89
c-40 0 -82 -29 -125 -87z" />
    <glyph glyph-name="Ograve" unicode="&#xd2;" horiz-adv-x="1560" 
d="M783 -20c-208 0 -391 74 -518 196s-203 301 -203 505c-6 405 307 703 721 697c205 0 389 -72 514 -194s201 -301 201 -504c0 -204 -76 -383 -201 -505s-309 -195 -514 -195zM785 1020c-95 0 -171 -31 -230 -94s-88 -145 -88 -246c0 -103 29 -186 88 -249
c59 -64 135 -96 230 -96c93 0 167 32 224 96c57 63 85 146 85 249c0 101 -28 183 -85 246s-132 94 -224 94zM642 1473l-287 334h432l167 -334h-312z" />
    <glyph glyph-name="Oacute" unicode="&#xd3;" horiz-adv-x="1560" 
d="M783 -20c-208 0 -391 74 -518 196s-203 301 -203 505c-6 405 307 703 721 697c205 0 389 -72 514 -194s201 -301 201 -504c0 -204 -76 -383 -201 -505s-309 -195 -514 -195zM467 680c0 -103 29 -186 88 -249c59 -64 135 -96 230 -96c93 0 167 32 224 96
c57 63 85 146 85 249c0 101 -28 183 -85 246s-132 94 -224 94c-95 0 -171 -31 -230 -94s-88 -145 -88 -246zM965 1473h-312l167 334h432z" />
    <glyph glyph-name="Ocircumflex" unicode="&#xd4;" horiz-adv-x="1560" 
d="M62 681c-6 405 307 703 721 697c205 0 389 -72 514 -194s201 -301 201 -504c0 -204 -76 -383 -201 -505s-309 -195 -514 -195c-208 0 -391 74 -518 196s-203 301 -203 505zM467 680c0 -103 29 -186 88 -249c59 -64 135 -96 230 -96c93 0 167 32 224 96
c57 63 85 146 85 249c0 101 -28 183 -85 246s-132 94 -224 94c-95 0 -171 -31 -230 -94s-88 -145 -88 -246zM676 1471h-311l287 370h257l287 -370h-312l-104 160z" />
    <glyph glyph-name="Otilde" unicode="&#xd5;" horiz-adv-x="1560" 
d="M783 -20c-208 0 -391 74 -518 196s-203 301 -203 505c-6 405 307 703 721 697c205 0 389 -72 514 -194s201 -301 201 -504c0 -204 -76 -383 -201 -505s-309 -195 -514 -195zM467 680c0 -103 29 -186 88 -249c59 -64 135 -96 230 -96c93 0 167 32 224 96
c57 63 85 146 85 249c0 101 -28 183 -85 246s-132 94 -224 94c-95 0 -171 -31 -230 -94s-88 -145 -88 -246zM515 1465l-140 127c77 156 179 230 288 230c53 0 109 -23 144 -46s79 -46 112 -46c40 0 83 26 129 77l137 -117c-51 -104 -129 -177 -196 -205
c-33 -15 -66 -22 -99 -22c-86 -3 -185 93 -250 89c-40 0 -82 -29 -125 -87z" />
    <glyph glyph-name="Odieresis" unicode="&#xd6;" horiz-adv-x="1560" 
d="M62 681c-6 405 307 703 721 697c205 0 389 -72 514 -194s201 -301 201 -504c0 -204 -76 -383 -201 -505s-309 -195 -514 -195c-208 0 -391 74 -518 196s-203 301 -203 505zM467 680c0 -103 29 -186 88 -249c59 -64 135 -96 230 -96c93 0 167 32 224 96
c57 63 85 146 85 249c0 101 -28 183 -85 246s-132 94 -224 94c-95 0 -171 -31 -230 -94s-88 -145 -88 -246zM808 1650c0 100 69 168 166 168c100 0 169 -69 169 -168s-69 -166 -169 -166c-97 0 -166 67 -166 166zM705 1530c-31 -31 -72 -46 -121 -46s-89 15 -120 46
s-47 71 -47 120c0 100 68 168 167 168c49 0 90 -16 121 -47s47 -72 47 -121s-16 -89 -47 -120z" />
    <glyph glyph-name="multiply" unicode="&#xd7;" horiz-adv-x="1244" 
d="M67 371l314 312c-33 33 -86 86 -159 158s-125 123 -156 154l245 246l310 -306l310 306l246 -246l-317 -312l318 -312l-247 -245l-310 306l-310 -306z" />
    <glyph glyph-name="Oslash" unicode="&#xd8;" horiz-adv-x="1560" 
d="M62 681c-6 405 307 703 721 697c124 0 237 -25 340 -74l111 160l128 -88l-108 -155c155 -127 244 -317 244 -541c0 -204 -76 -383 -201 -505s-309 -195 -514 -195c-126 0 -240 25 -343 74l-117 -168l-125 89l112 161c-157 125 -248 318 -248 545zM533 457l376 539
c-37 16 -79 24 -124 24c-95 0 -171 -31 -230 -94s-88 -145 -88 -246c0 -88 22 -162 66 -223zM1030 900l-376 -539c40 -17 84 -26 131 -26c93 0 167 32 224 96c57 63 85 146 85 249c0 86 -21 159 -64 220z" />
    <glyph glyph-name="Ugrave" unicode="&#xd9;" horiz-adv-x="1451" 
d="M135 497v861h399v-832c0 -135 80 -206 191 -206s192 71 192 206v832h399v-861c0 -351 -244 -517 -591 -517c-236 0 -413 71 -514 228c-51 79 -76 175 -76 289zM573 1473l-287 334h432l167 -334h-312z" />
    <glyph glyph-name="Uacute" unicode="&#xda;" horiz-adv-x="1451" 
d="M135 497v861h399v-832c0 -135 80 -206 191 -206s192 71 192 206v832h399v-861c0 -351 -244 -517 -591 -517c-236 0 -413 71 -514 228c-51 79 -76 175 -76 289zM889 1473h-312l167 334h432z" />
    <glyph glyph-name="Ucircumflex" unicode="&#xdb;" horiz-adv-x="1451" 
d="M135 497v861h399v-832c0 -135 80 -206 191 -206s192 71 192 206v832h399v-861c0 -351 -244 -517 -591 -517c-236 0 -413 71 -514 228c-51 79 -76 175 -76 289zM621 1471h-311l287 370h257l287 -370h-312l-104 160z" />
    <glyph glyph-name="Udieresis" unicode="&#xdc;" horiz-adv-x="1451" 
d="M725 -20c-236 0 -413 71 -514 228c-51 79 -76 175 -76 289v861h399v-832c0 -135 80 -206 191 -206s192 71 192 206v832h399v-861c0 -351 -244 -517 -591 -517zM754 1650c0 100 69 168 166 168c100 0 169 -69 169 -168s-69 -166 -169 -166c-97 0 -166 67 -166 166z
M651 1530c-31 -31 -72 -46 -121 -46s-89 15 -120 46s-47 71 -47 120c0 100 68 168 167 168c49 0 90 -16 121 -47s47 -72 47 -121s-16 -89 -47 -120z" />
    <glyph glyph-name="Yacute" unicode="&#xdd;" horiz-adv-x="1430" 
d="M518 0v510l-529 848h472l261 -515l265 515h454l-525 -848v-510h-398zM868 1473h-312l167 334h432z" />
    <glyph glyph-name="Thorn" unicode="&#xde;" horiz-adv-x="1434" 
d="M549 0h-399v1358h399v-182h288c165 0 304 -54 392 -142s137 -210 137 -347c0 -139 -49 -264 -137 -356s-227 -148 -392 -148h-288v-183zM549 847v-336h220c119 0 192 60 192 168c0 112 -64 168 -192 168h-220z" />
    <glyph glyph-name="germandbls" unicode="&#xdf;" horiz-adv-x="1401" 
d="M500 0h-374v940c0 153 51 272 152 359c101 86 237 129 406 129c164 0 297 -38 400 -113c102 -76 153 -174 153 -293c0 -67 -19 -124 -58 -173s-84 -83 -133 -102c72 -16 141 -53 201 -113s100 -157 100 -268c0 -112 -40 -204 -121 -277s-187 -109 -317 -109
c-151 0 -285 54 -358 137l189 243c39 -40 80 -60 124 -60c69 0 114 46 114 111c0 95 -82 146 -217 146c-46 0 -84 -3 -114 -9v271c137 3 197 63 197 146c0 80 -63 129 -158 129c-108 0 -186 -63 -186 -178v-916z" />
    <glyph glyph-name="agrave" unicode="&#xe0;" horiz-adv-x="1119" 
d="M253 573l-191 219c40 45 101 88 182 128s169 60 263 60c145 0 264 -34 356 -103c91 -69 143 -188 143 -343v-534h-354v98c-25 -39 -62 -68 -110 -88s-98 -30 -149 -30c-97 0 -176 27 -236 81c-61 54 -91 123 -91 208c0 63 20 117 60 163c39 45 88 78 147 99
c58 20 120 30 187 30c61 0 116 -6 165 -19v3c0 72 -56 123 -153 123c-78 0 -151 -32 -219 -95zM382 1121l-287 334h432l167 -334h-312zM528 363c-64 0 -111 -28 -111 -72c0 -39 35 -64 83 -64c73 0 125 51 125 120c-28 11 -60 16 -97 16z" />
    <glyph glyph-name="aacute" unicode="&#xe1;" horiz-adv-x="1119" 
d="M253 573l-191 219c40 45 101 88 182 128s169 60 263 60c145 0 264 -34 356 -103c91 -69 143 -188 143 -343v-534h-354v98c-25 -39 -62 -68 -110 -88s-98 -30 -149 -30c-97 0 -176 27 -236 81c-61 54 -91 123 -91 208c0 63 20 117 60 163c39 45 88 78 147 99
c58 20 120 30 187 30c61 0 116 -6 165 -19v3c0 72 -56 123 -153 123c-78 0 -151 -32 -219 -95zM711 1113h-312l167 334h432zM417 291c0 -39 35 -64 83 -64c73 0 125 51 125 120c-28 11 -60 16 -97 16c-64 0 -111 -28 -111 -72z" />
    <glyph glyph-name="acircumflex" unicode="&#xe2;" horiz-adv-x="1119" 
d="M253 573l-191 219c40 45 101 88 182 128s169 60 263 60c145 0 264 -34 356 -103c91 -69 143 -188 143 -343v-534h-354v98c-25 -39 -62 -68 -110 -88s-98 -30 -149 -30c-97 0 -176 27 -236 81c-61 54 -91 123 -91 208c0 63 20 117 60 163c39 45 88 78 147 99
c58 20 120 30 187 30c61 0 116 -6 165 -19v3c0 72 -56 123 -153 123c-78 0 -151 -32 -219 -95zM432 1084h-311l287 370h257l287 -370h-312l-104 160zM417 291c0 -39 35 -64 83 -64c73 0 125 51 125 120c-28 11 -60 16 -97 16c-64 0 -111 -28 -111 -72z" />
    <glyph glyph-name="atilde" unicode="&#xe3;" horiz-adv-x="1119" 
d="M253 573l-191 219c40 45 101 88 182 128s169 60 263 60c145 0 264 -34 356 -103c91 -69 143 -188 143 -343v-534h-354v98c-25 -39 -62 -68 -110 -88s-98 -30 -149 -30c-97 0 -176 27 -236 81c-61 54 -91 123 -91 208c0 63 20 117 60 163c39 45 88 78 147 99
c58 20 120 30 187 30c61 0 116 -6 165 -19v3c0 72 -56 123 -153 123c-78 0 -151 -32 -219 -95zM275 1105l-140 127c77 156 179 230 288 230c53 0 109 -23 144 -46s79 -46 112 -46c40 0 83 26 129 77l137 -117c-51 -104 -129 -177 -196 -205c-33 -15 -66 -22 -99 -22
c-86 -3 -185 93 -250 89c-40 0 -82 -29 -125 -87zM528 363c-64 0 -111 -28 -111 -72c0 -39 35 -64 83 -64c73 0 125 51 125 120c-28 11 -60 16 -97 16z" />
    <glyph glyph-name="adieresis" unicode="&#xe4;" horiz-adv-x="1119" 
d="M253 573l-191 219c40 45 101 88 182 128s169 60 263 60c145 0 264 -34 356 -103c91 -69 143 -188 143 -343v-534h-354v98c-25 -39 -62 -68 -110 -88s-98 -30 -149 -30c-97 0 -176 27 -236 81c-61 54 -91 123 -91 208c0 63 20 117 60 163c39 45 88 78 147 99
c58 20 120 30 187 30c61 0 116 -6 165 -19v3c0 72 -56 123 -153 123c-78 0 -151 -32 -219 -95zM452 1193c-31 -31 -72 -46 -121 -46s-89 15 -120 46s-47 71 -47 120c0 100 68 168 167 168c49 0 90 -16 121 -47s47 -72 47 -121s-16 -89 -47 -120zM721 1147
c-97 0 -166 67 -166 166c0 100 69 168 166 168c100 0 169 -69 169 -168s-69 -166 -169 -166zM417 291c0 -39 35 -64 83 -64c73 0 125 51 125 120c-28 11 -60 16 -97 16c-64 0 -111 -28 -111 -72z" />
    <glyph glyph-name="aring" unicode="&#xe5;" horiz-adv-x="1119" 
d="M253 573l-191 219c40 45 101 88 182 128s169 60 263 60c145 0 264 -34 356 -103c91 -69 143 -188 143 -343v-534h-354v98c-25 -39 -62 -68 -110 -88s-98 -30 -149 -30c-97 0 -176 27 -236 81c-61 54 -91 123 -91 208c0 63 20 117 60 163c39 45 88 78 147 99
c58 20 120 30 187 30c61 0 116 -6 165 -19v3c0 72 -56 123 -153 123c-78 0 -151 -32 -219 -95zM318 1288c0 66 22 121 66 165c43 44 98 66 165 66c66 0 121 -22 166 -66c44 -44 66 -99 66 -165c0 -65 -22 -119 -66 -162c-45 -44 -100 -66 -166 -66c-67 0 -122 22 -165 65
c-44 43 -66 98 -66 163zM417 291c0 -39 35 -64 83 -64c73 0 125 51 125 120c-28 11 -60 16 -97 16c-64 0 -111 -28 -111 -72zM586 1327c-21 23 -53 23 -73 0c-21 -23 -21 -53 0 -75c20 -22 52 -22 73 0c20 22 20 52 0 75z" />
    <glyph glyph-name="ae" unicode="&#xe6;" horiz-adv-x="1634" 
d="M254 573l-191 219c40 45 101 88 182 128s169 60 263 60c127 0 224 -40 292 -119c83 79 184 119 305 119c252 6 474 -188 471 -449c0 -39 -5 -80 -15 -123h-585c9 -88 83 -132 172 -132c79 0 145 32 197 95l215 -194c-29 -47 -82 -91 -161 -133c-79 -43 -169 -64 -272 -64
c-139 0 -254 47 -343 140c-79 -93 -189 -140 -330 -140c-115 0 -208 27 -279 81c-72 54 -108 123 -108 208c0 63 20 117 60 163c39 45 88 78 147 99c58 20 120 30 187 30c61 0 116 -6 165 -19v3c0 72 -56 123 -153 123c-78 0 -151 -32 -219 -95zM976 582h251
c0 31 -12 59 -35 83c-23 23 -52 35 -86 35c-69 0 -123 -53 -130 -118zM529 372c-64 0 -111 -28 -111 -72c0 -39 35 -64 83 -64c73 0 125 51 125 120c-28 11 -60 16 -97 16z" />
    <glyph glyph-name="ccedilla" unicode="&#xe7;" horiz-adv-x="1070" 
d="M55 480c-6 280 221 503 525 499c204 0 366 -89 449 -249l-278 -190c-37 79 -92 118 -164 118c-47 0 -86 -17 -119 -50c-33 -34 -50 -77 -50 -128c0 -55 17 -98 50 -131s74 -49 123 -49c72 0 128 37 169 110l274 -192c-73 -132 -214 -219 -391 -235l-17 -57
c140 -20 218 -90 218 -199c0 -134 -162 -211 -330 -208c-69 0 -126 10 -170 30v182c37 -15 79 -22 126 -22c71 0 114 21 114 54c0 35 -45 55 -120 55h-67l68 173c-123 23 -222 80 -297 170c-75 89 -113 196 -113 319z" />
    <glyph glyph-name="egrave" unicode="&#xe8;" horiz-adv-x="1092" 
d="M576 -20c-153 0 -277 47 -374 141c-97 93 -146 214 -146 361c-6 279 207 502 498 498c256 6 485 -188 481 -449c0 -39 -5 -80 -15 -123h-605c11 -88 87 -132 182 -132c81 0 152 38 199 102l223 -201c-25 -40 -78 -85 -151 -126s-181 -71 -292 -71zM408 1121l-287 334h432
l167 -334h-312zM415 582h271c0 31 -13 59 -38 83c-25 23 -56 35 -93 35s-69 -12 -95 -35c-27 -23 -42 -51 -45 -83z" />
    <glyph glyph-name="eacute" unicode="&#xe9;" horiz-adv-x="1092" 
d="M56 482c-6 279 207 502 498 498c256 6 485 -188 481 -449c0 -39 -5 -80 -15 -123h-605c11 -88 87 -132 182 -132c81 0 152 38 199 102l223 -201c-25 -40 -78 -85 -151 -126s-181 -71 -292 -71c-153 0 -277 47 -374 141c-97 93 -146 214 -146 361zM727 1113h-312l167 334
h432zM555 700c-37 0 -69 -12 -95 -35c-27 -23 -42 -51 -45 -83h271c0 31 -13 59 -38 83c-25 23 -56 35 -93 35z" />
    <glyph glyph-name="ecircumflex" unicode="&#xea;" horiz-adv-x="1092" 
d="M576 -20c-153 0 -277 47 -374 141c-97 93 -146 214 -146 361c-6 279 207 502 498 498c256 6 485 -188 481 -449c0 -39 -5 -80 -15 -123h-605c11 -88 87 -132 182 -132c81 0 152 38 199 102l223 -201c-25 -40 -78 -85 -151 -126s-181 -71 -292 -71zM546 1244l-104 -160
h-311l287 370h257l287 -370h-312zM555 700c-37 0 -69 -12 -95 -35c-27 -23 -42 -51 -45 -83h271c0 31 -13 59 -38 83c-25 23 -56 35 -93 35z" />
    <glyph glyph-name="edieresis" unicode="&#xeb;" horiz-adv-x="1092" 
d="M56 482c-6 279 207 502 498 498c256 6 485 -188 481 -449c0 -39 -5 -80 -15 -123h-605c11 -88 87 -132 182 -132c81 0 152 38 199 102l223 -201c-25 -40 -78 -85 -151 -126s-181 -71 -292 -71c-153 0 -277 47 -374 141c-97 93 -146 214 -146 361zM471 1193
c-31 -31 -72 -46 -121 -46s-89 15 -120 46s-47 71 -47 120c0 100 68 168 167 168c49 0 90 -16 121 -47s47 -72 47 -121s-16 -89 -47 -120zM740 1147c-97 0 -166 67 -166 166c0 100 69 168 166 168c100 0 169 -69 169 -168s-69 -166 -169 -166zM415 582h271
c0 31 -13 59 -38 83c-25 23 -56 35 -93 35s-69 -12 -95 -35c-27 -23 -42 -51 -45 -83z" />
    <glyph glyph-name="igrave" unicode="&#xec;" horiz-adv-x="636" 
d="M510 960v-960h-384v960h384zM470 1121h-312l-287 334h432z" />
    <glyph glyph-name="iacute" unicode="&#xed;" horiz-adv-x="636" 
d="M510 960v-960h-384v960h384zM332 1447h432l-287 -334h-312z" />
    <glyph glyph-name="icircumflex" unicode="&#xee;" horiz-adv-x="636" 
d="M510 960v-960h-384v960h384zM213 1084h-311l287 370h257l287 -370h-312l-104 160z" />
    <glyph glyph-name="idieresis" unicode="&#xef;" horiz-adv-x="636" 
d="M510 0h-384v960h384v-960zM346 1313c0 100 69 168 166 168c100 0 169 -69 169 -168s-69 -166 -169 -166c-97 0 -166 67 -166 166zM243 1193c-31 -31 -72 -46 -121 -46s-89 15 -120 46c-32 31 -47 71 -47 120c0 100 68 168 167 168c49 0 90 -16 121 -47s47 -72 47 -121
s-16 -89 -47 -120z" />
    <glyph glyph-name="eth" unicode="&#xf0;" horiz-adv-x="1194" 
d="M58 461c0 137 43 247 128 332s197 127 334 127c103 0 194 -39 225 -96c-16 88 -101 184 -232 264l-194 -144l-97 136l123 91c-47 19 -98 36 -152 51l177 258c91 -26 175 -60 253 -103l172 128l93 -137l-117 -87c217 -171 350 -417 350 -728c0 -173 -47 -311 -140 -416
c-94 -105 -223 -157 -387 -157c-159 0 -288 45 -387 134s-149 204 -149 347zM708 579c-31 30 -70 45 -119 45s-88 -15 -118 -45s-45 -69 -45 -118c0 -96 66 -161 163 -161s164 65 164 161c0 49 -15 88 -45 118z" />
    <glyph glyph-name="ntilde" unicode="&#xf1;" horiz-adv-x="1240" 
d="M126 0v960h350l9 -92c56 68 165 112 298 112c102 0 185 -31 249 -93c63 -62 95 -143 95 -243v-644h-384v530c0 68 -48 115 -117 115s-116 -47 -116 -115v-530h-384zM365 1105l-140 127c77 156 179 230 288 230c53 0 109 -23 144 -46s79 -46 112 -46c40 0 83 26 129 77
l137 -117c-51 -104 -129 -177 -196 -205c-33 -15 -66 -22 -99 -22c-86 -3 -185 93 -250 89c-40 0 -82 -29 -125 -87z" />
    <glyph glyph-name="ograve" unicode="&#xf2;" horiz-adv-x="1168" 
d="M967 119c-98 -93 -226 -139 -383 -139s-285 46 -382 139c-98 92 -147 212 -147 361s49 269 147 362c97 92 225 138 382 138s285 -46 383 -138c97 -93 146 -213 146 -362s-49 -269 -146 -361zM442 1121l-287 334h432l167 -334h-312zM704 610c-31 33 -71 49 -120 49
s-89 -16 -120 -49s-46 -77 -46 -130s15 -97 46 -130s71 -50 120 -50s89 17 120 50s46 77 46 130s-15 97 -46 130z" />
    <glyph glyph-name="oacute" unicode="&#xf3;" horiz-adv-x="1168" 
d="M202 119c-98 92 -147 212 -147 361s49 269 147 362c97 92 225 138 382 138s285 -46 383 -138c97 -93 146 -213 146 -362s-49 -269 -146 -361c-98 -93 -226 -139 -383 -139s-285 46 -382 139zM767 1113h-312l167 334h432zM704 610c-31 33 -71 49 -120 49s-89 -16 -120 -49
s-46 -77 -46 -130s15 -97 46 -130s71 -50 120 -50s89 17 120 50s46 77 46 130s-15 97 -46 130z" />
    <glyph glyph-name="ocircumflex" unicode="&#xf4;" horiz-adv-x="1168" 
d="M202 119c-98 92 -147 212 -147 361s49 269 147 362c97 92 225 138 382 138s285 -46 383 -138c97 -93 146 -213 146 -362s-49 -269 -146 -361c-98 -93 -226 -139 -383 -139s-285 46 -382 139zM480 1084h-311l287 370h257l287 -370h-312l-104 160zM464 610
c-31 -33 -46 -77 -46 -130s15 -97 46 -130s71 -50 120 -50s89 17 120 50s46 77 46 130s-15 97 -46 130s-71 49 -120 49s-89 -16 -120 -49z" />
    <glyph glyph-name="otilde" unicode="&#xf5;" horiz-adv-x="1168" 
d="M967 119c-98 -93 -226 -139 -383 -139s-285 46 -382 139c-98 92 -147 212 -147 361s49 269 147 362c97 92 225 138 382 138s285 -46 383 -138c97 -93 146 -213 146 -362s-49 -269 -146 -361zM319 1105l-140 127c77 156 179 230 288 230c53 0 109 -23 144 -46
s79 -46 112 -46c40 0 83 26 129 77l137 -117c-51 -104 -129 -177 -196 -205c-33 -15 -66 -22 -99 -22c-86 -3 -185 93 -250 89c-40 0 -82 -29 -125 -87zM464 610c-31 -33 -46 -77 -46 -130s15 -97 46 -130s71 -50 120 -50s89 17 120 50s46 77 46 130s-15 97 -46 130
s-71 49 -120 49s-89 -16 -120 -49z" />
    <glyph glyph-name="odieresis" unicode="&#xf6;" horiz-adv-x="1168" 
d="M967 119c-98 -93 -226 -139 -383 -139s-285 46 -382 139c-98 92 -147 212 -147 361s49 269 147 362c97 92 225 138 382 138s285 -46 383 -138c97 -93 146 -213 146 -362s-49 -269 -146 -361zM704 610c-31 33 -71 49 -120 49s-89 -16 -120 -49s-46 -77 -46 -130
s15 -97 46 -130s71 -50 120 -50s89 17 120 50s46 77 46 130s-15 97 -46 130zM612 1313c0 100 69 168 166 168c100 0 169 -69 169 -168s-69 -166 -169 -166c-97 0 -166 67 -166 166zM221 1313c0 100 68 168 167 168c98 0 168 -70 168 -168c0 -99 -69 -166 -168 -166
s-167 67 -167 166z" />
    <glyph glyph-name="divide" unicode="&#xf7;" horiz-adv-x="1283" 
d="M1195 821v-283h-1107v283h1107zM500 121c-39 37 -58 84 -58 139s19 102 58 140c38 38 85 57 142 57s104 -19 143 -57s58 -85 58 -140s-19 -102 -58 -139c-39 -38 -86 -57 -143 -57s-104 19 -142 57zM785 960c-39 -38 -86 -57 -143 -57s-104 19 -142 57
c-39 37 -58 84 -58 139s19 102 58 140c38 38 85 57 142 57s104 -19 143 -57s58 -85 58 -140s-19 -102 -58 -139z" />
    <glyph glyph-name="oslash" unicode="&#xf8;" horiz-adv-x="1168" 
d="M55 480c0 149 49 269 147 362c97 92 225 138 382 138c101 0 191 -20 271 -61l149 183l104 -85l-143 -175c99 -93 148 -213 148 -362s-49 -269 -146 -361c-98 -93 -226 -139 -383 -139c-100 0 -191 20 -272 61l-149 -183l-103 83l143 176c-99 93 -148 214 -148 363z
M735 560l-205 -252c18 -5 36 -8 54 -8c99 0 166 73 166 180c0 29 -5 56 -15 80zM433 399l204 252c-17 5 -35 8 -53 8c-99 0 -166 -72 -166 -179c0 -30 5 -57 15 -81z" />
    <glyph glyph-name="ugrave" unicode="&#xf9;" horiz-adv-x="1240" 
d="M457 -20c-102 0 -185 31 -248 93c-64 62 -96 143 -96 243v644h384v-530c0 -68 48 -115 117 -115s116 47 116 115v530h384v-960h-350l-9 92c-56 -68 -165 -112 -298 -112zM492 1121l-287 334h432l167 -334h-312z" />
    <glyph glyph-name="uacute" unicode="&#xfa;" horiz-adv-x="1240" 
d="M113 316v644h384v-530c0 -68 48 -115 117 -115s116 47 116 115v530h384v-960h-350l-9 92c-56 -68 -165 -112 -298 -112c-102 0 -185 31 -248 93c-64 62 -96 143 -96 243zM1064 1447l-287 -334h-312l167 334h432z" />
    <glyph glyph-name="ucircumflex" unicode="&#xfb;" horiz-adv-x="1240" 
d="M113 316v644h384v-530c0 -68 48 -115 117 -115s116 47 116 115v530h384v-960h-350l-9 92c-56 -68 -165 -112 -298 -112c-102 0 -185 31 -248 93c-64 62 -96 143 -96 243zM622 1244l-104 -160h-311l287 370h257l287 -370h-312z" />
    <glyph glyph-name="udieresis" unicode="&#xfc;" horiz-adv-x="1240" 
d="M113 316v644h384v-530c0 -68 48 -115 117 -115s116 47 116 115v530h384v-960h-350l-9 92c-56 -68 -165 -112 -298 -112c-102 0 -185 31 -248 93c-64 62 -96 143 -96 243zM648 1313c0 100 69 168 166 168c100 0 169 -69 169 -168s-69 -166 -169 -166
c-97 0 -166 67 -166 166zM545 1193c-31 -31 -72 -46 -121 -46s-89 15 -120 46s-47 71 -47 120c0 100 68 168 167 168c49 0 90 -16 121 -47s47 -72 47 -121s-16 -89 -47 -120z" />
    <glyph glyph-name="yacute" unicode="&#xfd;" horiz-adv-x="1153" 
d="M400 10l-402 950h398l181 -572l180 572h398l-428 -1078c-81 -205 -212 -302 -429 -302c-97 0 -178 18 -243 54l54 281c39 -19 78 -29 118 -29c84 0 144 31 173 124zM766 1113h-312l167 334h432z" />
    <glyph glyph-name="thorn" unicode="&#xfe;" horiz-adv-x="1265" 
d="M510 -400h-384v1808h384v-546l7 9c59 73 145 109 256 109c126 0 230 -47 312 -142s123 -214 123 -357s-41 -263 -123 -358s-186 -143 -312 -143c-113 0 -201 35 -263 106v-486zM673 658c-100 0 -168 -73 -168 -178c0 -107 68 -180 168 -180c103 0 172 73 172 180
c0 105 -69 178 -172 178z" />
    <glyph glyph-name="ydieresis" unicode="&#xff;" horiz-adv-x="1153" 
d="M400 10l-402 950h398l181 -572l180 572h398l-428 -1078c-81 -205 -212 -302 -429 -302c-97 0 -178 18 -243 54l54 281c39 -19 78 -29 118 -29c84 0 144 31 173 124zM771 1147c-97 0 -166 67 -166 166c0 100 69 168 166 168c100 0 169 -69 169 -168s-69 -166 -169 -166z
M214 1313c0 100 68 168 167 168c98 0 168 -70 168 -168c0 -99 -69 -166 -168 -166s-167 67 -167 166z" />
    <glyph glyph-name="Amacron" unicode="&#x100;" horiz-adv-x="1487" 
d="M410 0h-426l522 1358h476l521 -1358h-426l-88 227h-491zM1039 1486h-591v234h591v-234zM899 528l-155 454l-156 -454h311z" />
    <glyph glyph-name="amacron" unicode="&#x101;" horiz-adv-x="1119" 
d="M253 573l-191 219c40 45 101 88 182 128s169 60 263 60c145 0 264 -34 356 -103c91 -69 143 -188 143 -343v-534h-354v98c-25 -39 -62 -68 -110 -88s-98 -30 -149 -30c-97 0 -176 27 -236 81c-61 54 -91 123 -91 208c0 63 20 117 60 163c39 45 88 78 147 99
c58 20 120 30 187 30c61 0 116 -6 165 -19v3c0 72 -56 123 -153 123c-78 0 -151 -32 -219 -95zM226 1150v234h591v-234h-591zM417 291c0 -39 35 -64 83 -64c73 0 125 51 125 120c-28 11 -60 16 -97 16c-64 0 -111 -28 -111 -72z" />
    <glyph glyph-name="Abreve" unicode="&#x102;" horiz-adv-x="1487" 
d="M410 0h-426l522 1358h476l521 -1358h-426l-88 227h-491zM396 1809h249c-3 -81 35 -134 98 -134c64 0 102 53 98 134h250c0 -107 -31 -193 -94 -257s-147 -96 -254 -96c-105 0 -189 32 -252 96s-95 150 -95 257zM744 982l-156 -454h311z" />
    <glyph glyph-name="abreve" unicode="&#x103;" horiz-adv-x="1119" 
d="M253 573l-191 219c40 45 101 88 182 128s169 60 263 60c145 0 264 -34 356 -103c91 -69 143 -188 143 -343v-534h-354v98c-25 -39 -62 -68 -110 -88s-98 -30 -149 -30c-97 0 -176 27 -236 81c-61 54 -91 123 -91 208c0 63 20 117 60 163c39 45 88 78 147 99
c58 20 120 30 187 30c61 0 116 -6 165 -19v3c0 72 -56 123 -153 123c-78 0 -151 -32 -219 -95zM564 1099c-105 0 -189 32 -252 96s-95 150 -95 257h249c-3 -81 35 -134 98 -134c64 0 102 53 98 134h250c0 -107 -31 -193 -94 -257s-147 -96 -254 -96zM417 291
c0 -39 35 -64 83 -64c73 0 125 51 125 120c-28 11 -60 16 -97 16c-64 0 -111 -28 -111 -72z" />
    <glyph glyph-name="Aogonek" unicode="&#x104;" horiz-adv-x="1487" 
d="M410 0h-426l522 1358h476l521 -1358h-184c-123 -64 -196 -129 -196 -178c0 -41 32 -67 83 -67c41 0 81 9 119 27l64 -206c-62 -38 -139 -57 -230 -57c-86 0 -154 20 -204 60c-51 41 -76 94 -76 161c0 98 66 185 198 260l-88 227h-491zM899 528l-155 454l-156 -454h311z
" />
    <glyph glyph-name="aogonek" unicode="&#x105;" horiz-adv-x="1119" 
d="M253 573l-191 219c40 45 101 88 182 128s169 60 263 60c145 0 264 -34 356 -103c91 -69 143 -188 143 -343v-534h-113c-123 -64 -196 -129 -196 -178c0 -41 32 -67 83 -67c41 0 81 9 119 27l64 -206c-62 -38 -139 -57 -230 -57c-86 0 -154 20 -204 60
c-51 41 -76 94 -76 161c0 99 66 186 199 261v97c-25 -39 -62 -68 -110 -88s-98 -30 -149 -30c-97 0 -176 27 -236 81c-61 54 -91 123 -91 208c0 63 20 117 60 163c39 45 88 78 147 99c58 20 120 30 187 30c61 0 116 -6 165 -19v3c0 72 -56 123 -153 123
c-78 0 -151 -32 -219 -95zM417 291c0 -39 35 -64 83 -64c73 0 125 51 125 120c-28 11 -60 16 -97 16c-64 0 -111 -28 -111 -72z" />
    <glyph glyph-name="Cacute" unicode="&#x106;" horiz-adv-x="1421" 
d="M153 323c-61 107 -92 226 -92 358s31 251 92 357s148 189 259 250c111 60 237 90 378 90c127 0 243 -31 349 -92c106 -62 187 -145 242 -248l-290 -201c-67 128 -168 192 -301 192c-99 0 -177 -32 -236 -96s-89 -148 -89 -252c0 -103 30 -188 90 -253
c60 -66 138 -99 235 -99c137 0 244 65 320 194l285 -199c-50 -101 -131 -183 -243 -247c-113 -65 -233 -97 -362 -97c-141 0 -267 31 -378 92s-198 144 -259 251zM946 1473h-312l167 334h432z" />
    <glyph glyph-name="cacute" unicode="&#x107;" horiz-adv-x="1070" 
d="M55 480c-6 280 221 503 525 499c204 0 366 -89 449 -249l-278 -190c-37 79 -92 118 -164 118c-47 0 -86 -17 -119 -50c-33 -34 -50 -77 -50 -128c0 -55 17 -98 50 -131s74 -49 123 -49c72 0 128 37 169 110l274 -192c-41 -74 -101 -132 -180 -174
c-79 -43 -170 -64 -273 -64c-153 0 -278 48 -377 143s-149 214 -149 357zM747 1113h-312l167 334h432z" />
    <glyph glyph-name="Ccircumflex" unicode="&#x108;" horiz-adv-x="1421" 
d="M790 -20c-141 0 -267 31 -378 92s-198 144 -259 251s-92 226 -92 358s31 251 92 357s148 189 259 250c111 60 237 90 378 90c127 0 243 -31 349 -92c106 -62 187 -145 242 -248l-290 -201c-67 128 -168 192 -301 192c-99 0 -177 -32 -236 -96s-89 -148 -89 -252
c0 -103 30 -188 90 -253c60 -66 138 -99 235 -99c137 0 244 65 320 194l285 -199c-50 -101 -131 -183 -243 -247c-113 -65 -233 -97 -362 -97zM807 1631l-104 -160h-311l287 370h257l287 -370h-312z" />
    <glyph glyph-name="ccircumflex" unicode="&#x109;" horiz-adv-x="1070" 
d="M581 -20c-153 0 -278 48 -377 143s-149 214 -149 357c-6 280 221 503 525 499c204 0 366 -89 449 -249l-278 -190c-37 79 -92 118 -164 118c-47 0 -86 -17 -119 -50c-33 -34 -50 -77 -50 -128c0 -55 17 -98 50 -131s74 -49 123 -49c72 0 128 37 169 110l274 -192
c-41 -74 -101 -132 -180 -174c-79 -43 -170 -64 -273 -64zM473 1084h-311l287 370h257l287 -370h-312l-104 160z" />
    <glyph glyph-name="Cdotaccent" unicode="&#x10a;" horiz-adv-x="1421" 
d="M153 323c-61 107 -92 226 -92 358s31 251 92 357s148 189 259 250c111 60 237 90 378 90c127 0 243 -31 349 -92c106 -62 187 -145 242 -248l-290 -201c-67 128 -168 192 -301 192c-99 0 -177 -32 -236 -96s-89 -148 -89 -252c0 -103 30 -188 90 -253
c60 -66 138 -99 235 -99c137 0 244 65 320 194l285 -199c-50 -101 -131 -183 -243 -247c-113 -65 -233 -97 -362 -97c-141 0 -267 31 -378 92s-198 144 -259 251zM589 1663c0 63 19 115 58 154s89 59 152 59s115 -20 154 -59s59 -91 59 -154s-20 -113 -59 -152
s-91 -58 -154 -58s-113 19 -152 58s-58 89 -58 152z" />
    <glyph glyph-name="cdotaccent" unicode="&#x10b;" horiz-adv-x="1070" 
d="M55 480c-6 280 221 503 525 499c204 0 366 -89 449 -249l-278 -190c-37 79 -92 118 -164 118c-47 0 -86 -17 -119 -50c-33 -34 -50 -77 -50 -128c0 -55 17 -98 50 -131s74 -49 123 -49c72 0 128 37 169 110l274 -192c-41 -74 -101 -132 -180 -174
c-79 -43 -170 -64 -273 -64c-153 0 -278 48 -377 143s-149 214 -149 357zM584 1119c-63 0 -113 19 -152 58s-58 89 -58 152s19 115 58 154s89 59 152 59s115 -20 154 -59s59 -91 59 -154s-20 -113 -59 -152s-91 -58 -154 -58z" />
    <glyph glyph-name="Ccaron" unicode="&#x10c;" horiz-adv-x="1421" 
d="M790 -20c-141 0 -267 31 -378 92s-198 144 -259 251s-92 226 -92 358s31 251 92 357s148 189 259 250c111 60 237 90 378 90c127 0 243 -31 349 -92c106 -62 187 -145 242 -248l-290 -201c-67 128 -168 192 -301 192c-99 0 -177 -32 -236 -96s-89 -148 -89 -252
c0 -103 30 -188 90 -253c60 -66 138 -99 235 -99c137 0 244 65 320 194l285 -199c-50 -101 -131 -183 -243 -247c-113 -65 -233 -97 -362 -97zM669 1481l-287 370h311l104 -160l104 160h312l-287 -370h-257z" />
    <glyph glyph-name="ccaron" unicode="&#x10d;" horiz-adv-x="1070" 
d="M55 480c-6 280 221 503 525 499c204 0 366 -89 449 -249l-278 -190c-37 79 -92 118 -164 118c-47 0 -86 -17 -119 -50c-33 -34 -50 -77 -50 -128c0 -55 17 -98 50 -131s74 -49 123 -49c72 0 128 37 169 110l274 -192c-41 -74 -101 -132 -180 -174
c-79 -43 -170 -64 -273 -64c-153 0 -278 48 -377 143s-149 214 -149 357zM441 1096l-287 370h311l104 -160l104 160h312l-287 -370h-257z" />
    <glyph glyph-name="Dcaron" unicode="&#x10e;" horiz-adv-x="1502" 
d="M150 0v1358h598c94 0 184 -18 270 -53c85 -36 159 -84 221 -144c123 -121 201 -296 201 -481c0 -92 -18 -180 -54 -264c-37 -84 -86 -156 -147 -217c-62 -61 -136 -109 -221 -145c-86 -36 -176 -54 -270 -54h-598zM727 1037h-178v-717h175c90 0 165 36 224 107
s88 155 88 253s-29 182 -87 252s-132 105 -222 105zM819 1481h-257l-287 370h311l104 -160l104 160h312z" />
    <glyph glyph-name="dcaron" unicode="&#x10f;" horiz-adv-x="1338" 
d="M492 -20c-126 0 -230 48 -312 143s-123 213 -123 356s41 263 123 358s186 143 312 143c113 0 201 -35 263 -106v534h384v-1408h-382l-9 89c-59 -73 -145 -109 -256 -109zM1246 946l-7 462h342l-79 -462h-256zM592 660c-103 0 -172 -73 -172 -180c0 -105 69 -178 172 -178
c100 0 168 73 168 178c0 107 -68 180 -168 180z" />
    <glyph glyph-name="Dcroat" unicode="&#x110;" horiz-adv-x="1553" 
d="M201 605h-134v184h134v569h598c94 0 184 -18 270 -53c85 -36 159 -84 221 -144c123 -121 201 -296 201 -481c0 -92 -18 -180 -54 -264c-37 -84 -86 -156 -147 -217c-62 -61 -136 -109 -221 -145c-86 -36 -176 -54 -270 -54h-598v605zM600 1037v-248h246v-184h-246v-285
h175c90 0 165 36 224 107s88 155 88 253s-29 182 -87 252s-132 105 -222 105h-178z" />
    <glyph glyph-name="dcroat" unicode="&#x111;" horiz-adv-x="1192" 
d="M57 479c0 143 41 263 123 358s186 143 312 143c113 0 201 -35 263 -106v217h-221v184h221v133h384v-133h99v-184h-99v-1091h-382l-9 89c-59 -73 -145 -109 -256 -109c-126 0 -230 48 -312 143s-123 213 -123 356zM592 660c-103 0 -172 -73 -172 -180
c0 -105 69 -178 172 -178c100 0 168 73 168 178c0 107 -68 180 -168 180z" />
    <glyph glyph-name="Emacron" unicode="&#x112;" horiz-adv-x="1213" 
d="M1152 319v-319h-1002v1358h992v-320h-594v-188h521v-319h-521v-212h604zM933 1720v-234h-591v234h591z" />
    <glyph glyph-name="emacron" unicode="&#x113;" horiz-adv-x="1092" 
d="M576 -20c-153 0 -277 47 -374 141c-97 93 -146 214 -146 361c-6 279 207 502 498 498c256 6 485 -188 481 -449c0 -39 -5 -80 -15 -123h-605c11 -88 87 -132 182 -132c81 0 152 38 199 102l223 -201c-25 -40 -78 -85 -151 -126s-181 -71 -292 -71zM842 1384v-234h-591
v234h591zM415 582h271c0 31 -13 59 -38 83c-25 23 -56 35 -93 35s-69 -12 -95 -35c-27 -23 -42 -51 -45 -83z" />
    <glyph glyph-name="Ebreve" unicode="&#x114;" horiz-adv-x="1213" 
d="M1152 319v-319h-1002v1358h992v-320h-594v-188h521v-319h-521v-212h604zM308 1809h249c-3 -81 35 -134 98 -134c64 0 102 53 98 134h250c0 -107 -31 -193 -94 -257s-147 -96 -254 -96c-105 0 -189 32 -252 96s-95 150 -95 257z" />
    <glyph glyph-name="ebreve" unicode="&#x115;" horiz-adv-x="1092" 
d="M576 -20c-153 0 -277 47 -374 141c-97 93 -146 214 -146 361c-6 279 207 502 498 498c256 6 485 -188 481 -449c0 -39 -5 -80 -15 -123h-605c11 -88 87 -132 182 -132c81 0 152 38 199 102l223 -201c-25 -40 -78 -85 -151 -126s-181 -71 -292 -71zM546 1099
c-105 0 -189 32 -252 96s-95 150 -95 257h249c-3 -81 35 -134 98 -134c64 0 102 53 98 134h250c0 -107 -31 -193 -94 -257s-147 -96 -254 -96zM555 700c-37 0 -69 -12 -95 -35c-27 -23 -42 -51 -45 -83h271c0 31 -13 59 -38 83c-25 23 -56 35 -93 35z" />
    <glyph glyph-name="Edotaccent" unicode="&#x116;" horiz-adv-x="1213" 
d="M1152 0h-1002v1358h992v-320h-594v-188h521v-319h-521v-212h604v-319zM452 1663c0 63 19 115 58 154s89 59 152 59s115 -20 154 -59s59 -91 59 -154s-20 -113 -59 -152s-91 -58 -154 -58s-113 19 -152 58s-58 89 -58 152z" />
    <glyph glyph-name="edotaccent" unicode="&#x117;" horiz-adv-x="1092" 
d="M576 -20c-153 0 -277 47 -374 141c-97 93 -146 214 -146 361c-6 279 207 502 498 498c256 6 485 -188 481 -449c0 -39 -5 -80 -15 -123h-605c11 -88 87 -132 182 -132c81 0 152 38 199 102l223 -201c-25 -40 -78 -85 -151 -126s-181 -71 -292 -71zM555 1119
c-63 0 -113 19 -152 58s-58 89 -58 152s19 115 58 154s89 59 152 59s115 -20 154 -59s59 -91 59 -154s-20 -113 -59 -152s-91 -58 -154 -58zM555 700c-37 0 -69 -12 -95 -35c-27 -23 -42 -51 -45 -83h271c0 31 -13 59 -38 83c-25 23 -56 35 -93 35z" />
    <glyph glyph-name="Eogonek" unicode="&#x118;" horiz-adv-x="1213" 
d="M150 0v1358h992v-320h-594v-188h521v-319h-521v-212h604v-319h-1c-123 -64 -196 -129 -196 -178c0 -41 32 -67 83 -67c41 0 81 9 119 27l64 -206c-62 -38 -139 -57 -230 -57c-86 0 -154 20 -204 60c-51 41 -76 94 -76 161c0 98 66 185 198 260h-759z" />
    <glyph glyph-name="eogonek" unicode="&#x119;" horiz-adv-x="1092" 
d="M56 482c-6 279 207 502 498 498c256 6 485 -188 481 -449c0 -39 -5 -80 -15 -123h-605c11 -88 87 -132 182 -132c81 0 152 38 199 102l223 -201c-21 -33 -57 -66 -109 -101s-113 -61 -182 -78c-120 -63 -192 -128 -192 -176c0 -41 32 -67 83 -67c41 0 81 9 119 27
l64 -206c-62 -38 -139 -57 -230 -57c-86 0 -154 20 -204 60c-51 41 -76 94 -76 161c0 93 59 176 178 249c-125 21 -225 77 -300 166c-76 89 -114 198 -114 327zM555 700c-37 0 -69 -12 -95 -35c-27 -23 -42 -51 -45 -83h271c0 31 -13 59 -38 83c-25 23 -56 35 -93 35z" />
    <glyph glyph-name="Ecaron" unicode="&#x11a;" horiz-adv-x="1213" 
d="M1152 319v-319h-1002v1358h992v-320h-594v-188h521v-319h-521v-212h604zM796 1481h-257l-287 370h311l104 -160l104 160h312z" />
    <glyph glyph-name="ecaron" unicode="&#x11b;" horiz-adv-x="1092" 
d="M576 -20c-153 0 -277 47 -374 141c-97 93 -146 214 -146 361c-6 279 207 502 498 498c256 6 485 -188 481 -449c0 -39 -5 -80 -15 -123h-605c11 -88 87 -132 182 -132c81 0 152 38 199 102l223 -201c-25 -40 -78 -85 -151 -126s-181 -71 -292 -71zM428 1096l-287 370h311
l104 -160l104 160h312l-287 -370h-257zM415 582h271c0 31 -13 59 -38 83c-25 23 -56 35 -93 35s-69 -12 -95 -35c-27 -23 -42 -51 -45 -83z" />
    <glyph glyph-name="Gcircumflex" unicode="&#x11c;" horiz-adv-x="1500" 
d="M61 680c0 199 76 376 203 500c127 123 315 198 526 198c119 0 229 -27 331 -82s182 -130 241 -225l-290 -201c-60 104 -161 159 -282 159c-99 0 -177 -32 -236 -96s-89 -148 -89 -252c0 -103 30 -188 90 -253c60 -66 138 -99 235 -99c128 0 217 55 252 160h-298v292h700
c3 -38 5 -81 5 -128c0 -206 -61 -370 -183 -491c-123 -121 -281 -182 -476 -182c-211 0 -399 76 -526 200s-203 303 -203 500zM666 1471h-311l287 370h257l287 -370h-312l-104 160z" />
    <glyph glyph-name="gcircumflex" unicode="&#x11d;" horiz-adv-x="1265" 
d="M496 0c-126 0 -230 47 -312 140s-123 210 -123 349c0 141 41 258 123 351s186 140 312 140c111 0 196 -36 256 -109l9 89h382v-913c-1 -197 -115 -329 -269 -398c-105 -48 -218 -69 -334 -69c-108 0 -202 19 -283 57s-143 81 -186 128l197 232c71 -69 158 -104 260 -104
c60 0 112 16 157 47s67 70 67 117v32c-58 -59 -143 -89 -256 -89zM654 1244l-104 -160h-311l287 370h257l287 -370h-312zM596 660c-103 0 -172 -69 -172 -170c0 -100 69 -168 172 -168c100 0 168 68 168 168c0 101 -68 170 -168 170z" />
    <glyph glyph-name="Gbreve" unicode="&#x11e;" horiz-adv-x="1500" 
d="M790 -20c-211 0 -399 76 -526 200s-203 303 -203 500c0 199 76 376 203 500c127 123 315 198 526 198c119 0 229 -27 331 -82s182 -130 241 -225l-290 -201c-60 104 -161 159 -282 159c-99 0 -177 -32 -236 -96s-89 -148 -89 -252c0 -103 30 -188 90 -253
c60 -66 138 -99 235 -99c128 0 217 55 252 160h-298v292h700c3 -38 5 -81 5 -128c0 -206 -61 -370 -183 -491c-123 -121 -281 -182 -476 -182zM750 1456c-105 0 -189 32 -252 96s-95 150 -95 257h249c-3 -81 35 -134 98 -134c64 0 102 53 98 134h250
c0 -107 -31 -193 -94 -257s-147 -96 -254 -96z" />
    <glyph glyph-name="gbreve" unicode="&#x11f;" horiz-adv-x="1265" 
d="M61 489c0 141 41 258 123 351s186 140 312 140c111 0 196 -36 256 -109l9 89h382v-913c-1 -197 -115 -329 -269 -398c-105 -48 -218 -69 -334 -69c-108 0 -202 19 -283 57s-143 81 -186 128l197 232c71 -69 158 -104 260 -104c60 0 112 16 157 47s67 70 67 117v32
c-58 -59 -143 -89 -256 -89c-126 0 -230 47 -312 140s-123 210 -123 349zM228 1456h249c-3 -81 35 -134 98 -134c64 0 102 53 98 134h250c0 -107 -31 -193 -94 -257s-147 -96 -254 -96c-105 0 -189 32 -252 96s-95 150 -95 257zM596 660c-103 0 -172 -69 -172 -170
c0 -100 69 -168 172 -168c100 0 168 68 168 168c0 101 -68 170 -168 170z" />
    <glyph glyph-name="Gdotaccent" unicode="&#x120;" horiz-adv-x="1500" 
d="M790 -20c-211 0 -399 76 -526 200s-203 303 -203 500c0 199 76 376 203 500c127 123 315 198 526 198c119 0 229 -27 331 -82s182 -130 241 -225l-290 -201c-60 104 -161 159 -282 159c-99 0 -177 -32 -236 -96s-89 -148 -89 -252c0 -103 30 -188 90 -253
c60 -66 138 -99 235 -99c128 0 217 55 252 160h-298v292h700c3 -38 5 -81 5 -128c0 -206 -61 -370 -183 -491c-123 -121 -281 -182 -476 -182zM569 1663c0 63 19 115 58 154s89 59 152 59s115 -20 154 -59s59 -91 59 -154s-20 -113 -59 -152s-91 -58 -154 -58
s-113 19 -152 58s-58 89 -58 152z" />
    <glyph glyph-name="gdotaccent" unicode="&#x121;" horiz-adv-x="1265" 
d="M61 489c0 141 41 258 123 351s186 140 312 140c111 0 196 -36 256 -109l9 89h382v-913c-1 -197 -115 -329 -269 -398c-105 -48 -218 -69 -334 -69c-108 0 -202 19 -283 57s-143 81 -186 128l197 232c71 -69 158 -104 260 -104c60 0 112 16 157 47s67 70 67 117v32
c-58 -59 -143 -89 -256 -89c-126 0 -230 47 -312 140s-123 210 -123 349zM396 1329c0 63 19 115 58 154s89 59 152 59s115 -20 154 -59s59 -91 59 -154s-20 -113 -59 -152s-91 -58 -154 -58s-113 19 -152 58s-58 89 -58 152zM424 490c0 -100 69 -168 172 -168
c100 0 168 68 168 168c0 101 -68 170 -168 170c-103 0 -172 -69 -172 -170z" />
    <glyph glyph-name="uni0122" unicode="&#x122;" horiz-adv-x="1500" 
d="M790 -20c-211 0 -399 76 -526 200s-203 303 -203 500c0 199 76 376 203 500c127 123 315 198 526 198c119 0 229 -27 331 -82s182 -130 241 -225l-290 -201c-60 104 -161 159 -282 159c-99 0 -177 -32 -236 -96s-89 -148 -89 -252c0 -103 30 -188 90 -253
c60 -66 138 -99 235 -99c128 0 217 55 252 160h-298v292h700c3 -38 5 -81 5 -128c0 -206 -61 -370 -183 -491c-123 -121 -281 -182 -476 -182zM852 -548h-256l-7 462h342z" />
    <glyph glyph-name="uni0123" unicode="&#x123;" horiz-adv-x="1265" 
d="M61 489c0 141 41 258 123 351s186 140 312 140c111 0 196 -36 256 -109l9 89h382v-913c-1 -197 -115 -329 -269 -398c-105 -48 -218 -69 -334 -69c-108 0 -202 19 -283 57s-143 81 -186 128l197 232c71 -69 158 -104 260 -104c60 0 112 16 157 47s67 70 67 117v32
c-58 -59 -143 -89 -256 -89c-126 0 -230 47 -312 140s-123 210 -123 349zM687 1563l7 -462h-342l79 462h256zM596 660c-103 0 -172 -69 -172 -170c0 -100 69 -168 172 -168c100 0 168 68 168 168c0 101 -68 170 -168 170z" />
    <glyph glyph-name="Hcircumflex" unicode="&#x124;" horiz-adv-x="1616" 
d="M150 0v1358h399v-506h518v506h399v-1358h-399v533h-518v-533h-399zM808 1631l-104 -160h-311l287 370h257l287 -370h-312z" />
    <glyph glyph-name="hcircumflex" unicode="&#x125;" horiz-adv-x="1240" 
d="M510 0h-384v1408h384v-514c64 57 155 86 273 86c102 0 185 -31 249 -93c63 -62 95 -143 95 -243v-644h-384v530c0 68 -48 115 -117 115s-116 -47 -116 -115v-530zM305 1649l-104 -160h-311l287 370h257l287 -370h-312z" />
    <glyph glyph-name="Hbar" unicode="&#x126;" horiz-adv-x="1548" 
d="M1432 1358v-170h100v-184h-100v-1004h-399v533h-518v-533h-399v1004h-100v184h100v170h399v-170h518v170h399zM1033 852v152h-518v-152h518z" />
    <glyph glyph-name="hbar" unicode="&#x127;" horiz-adv-x="1240" 
d="M126 1092h-106v184h106v132h384v-132h234v-184h-234v-198c64 57 155 86 273 86c102 0 185 -31 249 -93c63 -62 95 -143 95 -243v-644h-384v530c0 68 -48 115 -117 115s-116 -47 -116 -115v-530h-384v1092z" />
    <glyph glyph-name="Itilde" unicode="&#x128;" horiz-adv-x="699" 
d="M150 0v1358h399v-1358h-399zM74 1465l-140 127c77 156 179 230 288 230c53 0 109 -23 144 -46s79 -46 112 -46c40 0 83 26 129 77l137 -117c-51 -104 -129 -177 -196 -205c-33 -15 -66 -22 -99 -22c-86 -3 -185 93 -250 89c-40 0 -82 -29 -125 -87z" />
    <glyph glyph-name="itilde" unicode="&#x129;" horiz-adv-x="636" 
d="M510 960v-960h-384v960h384zM53 1105l-140 127c77 156 179 230 288 230c53 0 109 -23 144 -46s79 -46 112 -46c40 0 83 26 129 77l137 -117c-51 -104 -129 -177 -196 -205c-33 -15 -66 -22 -99 -22c-86 -3 -185 93 -250 89c-40 0 -82 -29 -125 -87z" />
    <glyph glyph-name="Imacron" unicode="&#x12a;" horiz-adv-x="699" 
d="M150 1358h399v-1358h-399v1358zM54 1720h591v-234h-591v234z" />
    <glyph glyph-name="imacron" unicode="&#x12b;" horiz-adv-x="636" 
d="M510 960v-960h-384v960h384zM22 1384h591v-234h-591v234z" />
    <glyph glyph-name="Ibreve" unicode="&#x12c;" horiz-adv-x="699" 
d="M549 1358v-1358h-399v1358h399zM2 1809h249c-3 -81 35 -134 98 -134c64 0 102 53 98 134h250c0 -107 -31 -193 -94 -257s-147 -96 -254 -96c-105 0 -189 32 -252 96s-95 150 -95 257z" />
    <glyph glyph-name="ibreve" unicode="&#x12d;" horiz-adv-x="636" 
d="M510 960v-960h-384v960h384zM-30 1452h249c-3 -81 35 -134 98 -134c64 0 102 53 98 134h250c0 -107 -31 -193 -94 -257s-147 -96 -254 -96c-105 0 -189 32 -252 96s-95 150 -95 257z" />
    <glyph glyph-name="Iogonek" unicode="&#x12e;" horiz-adv-x="699" 
d="M44 -260c0 98 66 185 198 260h-92v1358h399v-1358h-65c-123 -64 -196 -129 -196 -178c0 -41 32 -67 83 -67c41 0 81 9 119 27l64 -206c-62 -38 -139 -57 -230 -57c-86 0 -154 20 -204 60c-51 41 -76 94 -76 161z" />
    <glyph glyph-name="iogonek" unicode="&#x12f;" horiz-adv-x="636" 
d="M6 -260c0 98 66 185 198 260h-78v960h384v-960h-64c-123 -64 -196 -129 -196 -178c0 -41 32 -67 83 -67c41 0 81 9 119 27l64 -206c-62 -38 -139 -57 -230 -57c-86 0 -154 20 -204 60c-51 41 -76 94 -76 161zM316 1119c-63 0 -113 19 -152 58s-58 89 -58 152
s19 115 58 154s89 59 152 59s115 -20 154 -59s59 -91 59 -154s-20 -113 -59 -152s-91 -58 -154 -58z" />
    <glyph glyph-name="Idotaccent" unicode="&#x130;" horiz-adv-x="699" 
d="M150 0v1358h399v-1358h-399zM138 1663c0 63 19 115 58 154s89 59 152 59s115 -20 154 -59s59 -91 59 -154s-20 -113 -59 -152s-91 -58 -154 -58s-113 19 -152 58s-58 89 -58 152z" />
    <glyph glyph-name="dotlessi" unicode="&#x131;" horiz-adv-x="636" 
d="M510 960v-960h-384v960h384z" />
    <glyph glyph-name="IJ" unicode="&#x132;" horiz-adv-x="1727" 
d="M597 232l251 239c57 -95 128 -142 213 -142c84 0 139 64 139 160v869h399v-902c0 -145 -47 -260 -140 -346c-93 -87 -220 -130 -381 -130c-211 0 -372 84 -481 252zM150 0v1358h399v-1358h-399z" />
    <glyph glyph-name="ij" unicode="&#x133;" horiz-adv-x="1179" 
d="M420 -373l32 288c36 -15 76 -23 119 -23c69 0 109 42 109 127v941h373v-978c0 -170 -80 -282 -179 -343c-69 -42 -141 -59 -213 -59c-98 0 -178 16 -241 47zM126 0v960h384v-960h-384zM866 1046c-63 0 -113 19 -152 58s-58 89 -58 152s19 115 58 154s89 59 152 59
s115 -20 154 -59s59 -91 59 -154s-20 -113 -59 -152s-91 -58 -154 -58zM313 1046c-63 0 -113 19 -152 58s-58 89 -58 152s19 115 58 154s89 59 152 59s115 -20 154 -59s59 -91 59 -154s-20 -113 -59 -152s-91 -58 -154 -58z" />
    <glyph glyph-name="Jcircumflex" unicode="&#x134;" horiz-adv-x="1119" 
d="M-20 232l251 239c57 -95 128 -142 213 -142c84 0 139 64 139 160v869h399v-902c0 -145 -47 -260 -140 -346c-93 -87 -220 -130 -381 -130c-211 0 -372 84 -481 252zM680 1471h-311l287 370h257l287 -370h-312l-104 160z" />
    <glyph glyph-name="jcircumflex" unicode="&#x135;" horiz-adv-x="599" 
d="M81 -420c-98 0 -178 16 -241 47l32 288c36 -15 76 -23 119 -23c69 0 109 42 109 127v941h373v-978c0 -170 -80 -282 -179 -343c-69 -42 -141 -59 -213 -59zM299 1244l-104 -160h-311l287 370h257l287 -370h-312z" />
    <glyph glyph-name="uni0136" unicode="&#x136;" horiz-adv-x="1484" 
d="M549 0h-399v1358h399v-501l463 501h478l-523 -556l546 -802h-467l-354 554l-143 -148v-406zM867 -548h-256l-7 462h342z" />
    <glyph glyph-name="uni0137" unicode="&#x137;" horiz-adv-x="1211" 
d="M511 0h-385v1408h385v-701l235 253h470l-387 -397l402 -563h-456l-214 338l-50 -52v-286zM471 -548l-7 462h342l-79 -462h-256z" />
    <glyph glyph-name="kgreenlandic" unicode="&#x138;" horiz-adv-x="1211" 
d="M511 0h-385v960h385v-253l235 253h470l-387 -397l402 -563h-456l-214 338l-50 -52v-286z" />
    <glyph glyph-name="Lacute" unicode="&#x139;" horiz-adv-x="1208" 
d="M549 318h652v-318h-1051v1358h399v-1040zM356 1807h432l-287 -334h-312z" />
    <glyph glyph-name="lacute" unicode="&#x13a;" horiz-adv-x="636" 
d="M126 1408h384v-1408h-384v1408zM319 1826h432l-287 -334h-312z" />
    <glyph glyph-name="uni013B" unicode="&#x13b;" horiz-adv-x="1208" 
d="M549 318h652v-318h-1051v1358h399v-1040zM776 -548h-256l-7 462h342z" />
    <glyph glyph-name="uni013C" unicode="&#x13c;" horiz-adv-x="636" 
d="M126 1408h384v-1408h-384v1408zM399 -548h-256l-7 462h342z" />
    <glyph glyph-name="Lcaron" unicode="&#x13d;" horiz-adv-x="1208" 
d="M1201 318v-318h-1051v1358h399v-1040h652zM725 896l-7 462h342l-79 -462h-256z" />
    <glyph glyph-name="lcaron" unicode="&#x13e;" horiz-adv-x="709" 
d="M126 0v1408h384v-1408h-384zM616 946l-7 462h342l-79 -462h-256z" />
    <glyph glyph-name="Ldot" unicode="&#x13f;" horiz-adv-x="1211" 
d="M1201 318v-318h-1051v1358h399v-1040h652zM736 718c0 55 20 103 60 142c39 39 85 58 138 58c55 0 102 -20 143 -60c40 -40 60 -87 60 -140c0 -55 -21 -101 -62 -138s-88 -56 -141 -56c-54 0 -100 20 -139 59s-59 84 -59 135z" />
    <glyph glyph-name="ldot" unicode="&#x140;" horiz-adv-x="958" 
d="M126 0v1408h384v-1408h-384zM753 480c-63 0 -113 19 -152 58s-58 89 -58 152s19 115 58 154s89 59 152 59s115 -20 154 -59s59 -91 59 -154s-20 -113 -59 -152s-91 -58 -154 -58z" />
    <glyph glyph-name="Lslash" unicode="&#x141;" horiz-adv-x="1297" 
d="M638 1358v-474l239 14v-194l-239 -14v-372h652v-318h-1051v666l-198 -12v194l198 12v498h399z" />
    <glyph glyph-name="lslash" unicode="&#x142;" horiz-adv-x="691" 
d="M538 1408v-653l118 47v-184l-118 -44v-574h-384v431l-119 -44v170l119 47v804h384z" />
    <glyph glyph-name="Nacute" unicode="&#x143;" horiz-adv-x="1592" 
d="M150 0v1358h325l579 -725v725h388v-1358h-311l-593 727v-727h-388zM1231 1807l-287 -334h-312l167 334h432z" />
    <glyph glyph-name="nacute" unicode="&#x144;" horiz-adv-x="1240" 
d="M510 530v-530h-384v960h350l9 -92c56 68 165 112 298 112c102 0 185 -31 249 -93c63 -62 95 -143 95 -243v-644h-384v530c0 68 -48 115 -117 115s-116 -47 -116 -115zM837 1113h-312l167 334h432z" />
    <glyph glyph-name="uni0145" unicode="&#x145;" horiz-adv-x="1592" 
d="M150 0v1358h325l579 -725v725h388v-1358h-311l-593 727v-727h-388zM652 -548l-7 462h342l-79 -462h-256z" />
    <glyph glyph-name="uni0146" unicode="&#x146;" horiz-adv-x="1240" 
d="M126 0v960h350l9 -92c56 68 165 112 298 112c102 0 185 -31 249 -93c63 -62 95 -143 95 -243v-644h-384v530c0 68 -48 115 -117 115s-116 -47 -116 -115v-530h-384zM733 -548h-256l-7 462h342z" />
    <glyph glyph-name="Ncaron" unicode="&#x147;" horiz-adv-x="1592" 
d="M538 0h-388v1358h325l579 -725v725h388v-1358h-311l-593 727v-727zM668 1481l-287 370h311l104 -160l104 160h312l-287 -370h-257z" />
    <glyph glyph-name="ncaron" unicode="&#x148;" horiz-adv-x="1240" 
d="M126 0v960h350l9 -92c56 68 165 112 298 112c102 0 185 -31 249 -93c63 -62 95 -143 95 -243v-644h-384v530c0 68 -48 115 -117 115s-116 -47 -116 -115v-530h-384zM778 1096h-257l-287 370h311l104 -160l104 160h312z" />
    <glyph glyph-name="napostrophe" unicode="&#x149;" horiz-adv-x="1478" 
d="M748 0h-384v960h350l9 -92c56 68 165 112 298 112c102 0 185 -31 249 -93c63 -62 95 -143 95 -243v-644h-384v530c0 68 -48 115 -117 115s-116 -47 -116 -115v-530zM487 1428l-198 -516h-291l137 516h352z" />
    <glyph glyph-name="Eng" unicode="&#x14a;" horiz-adv-x="1592" 
d="M150 0v1358h325l579 -725v725h388v-1376c1 -284 -227 -403 -407 -402c-98 0 -178 16 -241 47l32 288c36 -15 76 -23 119 -23c69 0 109 42 109 127v75l-516 633v-727h-388z" />
    <glyph glyph-name="eng" unicode="&#x14b;" horiz-adv-x="1240" 
d="M510 0h-384v960h350l9 -92c56 68 165 112 298 112c102 0 185 -31 249 -93c63 -62 95 -143 95 -243v-662c1 -284 -215 -403 -383 -402c-90 0 -164 16 -221 47l32 288c29 -15 62 -23 99 -23c59 0 89 42 89 127v511c0 68 -48 115 -117 115s-116 -47 -116 -115v-530z" />
    <glyph glyph-name="Omacron" unicode="&#x14c;" horiz-adv-x="1560" 
d="M783 -20c-208 0 -391 74 -518 196s-203 301 -203 505c-6 405 307 703 721 697c205 0 389 -72 514 -194s201 -301 201 -504c0 -204 -76 -383 -201 -505s-309 -195 -514 -195zM467 680c0 -103 29 -186 88 -249c59 -64 135 -96 230 -96c93 0 167 32 224 96
c57 63 85 146 85 249c0 101 -28 183 -85 246s-132 94 -224 94c-95 0 -171 -31 -230 -94s-88 -145 -88 -246zM1076 1720v-234h-591v234h591z" />
    <glyph glyph-name="omacron" unicode="&#x14d;" horiz-adv-x="1168" 
d="M202 119c-98 92 -147 212 -147 361s49 269 147 362c97 92 225 138 382 138s285 -46 383 -138c97 -93 146 -213 146 -362s-49 -269 -146 -361c-98 -93 -226 -139 -383 -139s-285 46 -382 139zM289 1150v234h591v-234h-591zM704 610c-31 33 -71 49 -120 49
s-89 -16 -120 -49s-46 -77 -46 -130s15 -97 46 -130s71 -50 120 -50s89 17 120 50s46 77 46 130s-15 97 -46 130z" />
    <glyph glyph-name="Obreve" unicode="&#x14e;" horiz-adv-x="1560" 
d="M783 -20c-208 0 -391 74 -518 196s-203 301 -203 505c-6 405 307 703 721 697c205 0 389 -72 514 -194s201 -301 201 -504c0 -204 -76 -383 -201 -505s-309 -195 -514 -195zM467 680c0 -103 29 -186 88 -249c59 -64 135 -96 230 -96c93 0 167 32 224 96
c57 63 85 146 85 249c0 101 -28 183 -85 246s-132 94 -224 94c-95 0 -171 -31 -230 -94s-88 -145 -88 -246zM780 1456c-105 0 -189 32 -252 96s-95 150 -95 257h249c-3 -81 35 -134 98 -134c64 0 102 53 98 134h250c0 -107 -31 -193 -94 -257s-147 -96 -254 -96z" />
    <glyph glyph-name="obreve" unicode="&#x14f;" horiz-adv-x="1168" 
d="M967 119c-98 -93 -226 -139 -383 -139s-285 46 -382 139c-98 92 -147 212 -147 361s49 269 147 362c97 92 225 138 382 138s285 -46 383 -138c97 -93 146 -213 146 -362s-49 -269 -146 -361zM584 1099c-105 0 -189 32 -252 96s-95 150 -95 257h249
c-3 -81 35 -134 98 -134c64 0 102 53 98 134h250c0 -107 -31 -193 -94 -257s-147 -96 -254 -96zM704 610c-31 33 -71 49 -120 49s-89 -16 -120 -49s-46 -77 -46 -130s15 -97 46 -130s71 -50 120 -50s89 17 120 50s46 77 46 130s-15 97 -46 130z" />
    <glyph glyph-name="Ohungarumlaut" unicode="&#x150;" horiz-adv-x="1560" 
d="M62 681c-6 405 307 703 721 697c205 0 389 -72 514 -194s201 -301 201 -504c0 -204 -76 -383 -201 -505s-309 -195 -514 -195c-208 0 -391 74 -518 196s-203 301 -203 505zM467 680c0 -103 29 -186 88 -249c59 -64 135 -96 230 -96c93 0 167 32 224 96
c57 63 85 146 85 249c0 101 -28 183 -85 246s-132 94 -224 94c-95 0 -171 -31 -230 -94s-88 -145 -88 -246zM1450 1807l-287 -334h-312l167 334h432zM673 1473h-312l167 334h432z" />
    <glyph glyph-name="ohungarumlaut" unicode="&#x151;" horiz-adv-x="1168" 
d="M202 119c-98 92 -147 212 -147 361s49 269 147 362c97 92 225 138 382 138s285 -46 383 -138c97 -93 146 -213 146 -362s-49 -269 -146 -361c-98 -93 -226 -139 -383 -139s-285 46 -382 139zM1245 1447l-308 -334h-291l197 334h402zM543 1113h-291l167 334h372zM464 610
c-31 -33 -46 -77 -46 -130s15 -97 46 -130s71 -50 120 -50s89 17 120 50s46 77 46 130s-15 97 -46 130s-71 49 -120 49s-89 -16 -120 -49z" />
    <glyph glyph-name="OE" unicode="&#x152;" horiz-adv-x="2249" 
d="M800 -20c-431 -6 -744 294 -738 701c-6 405 307 703 738 697c135 0 258 -39 369 -116v96h1014v-320h-685v-191h619v-318h-619v-211h690v-318h-1019v96c-111 -77 -234 -116 -369 -116zM466 680c0 -103 31 -186 93 -249c61 -64 142 -96 243 -96c98 0 177 32 238 96
c60 63 90 146 90 249c0 101 -30 183 -90 246c-61 63 -140 94 -238 94c-101 0 -182 -31 -243 -94c-62 -63 -93 -145 -93 -246z" />
    <glyph glyph-name="oe" unicode="&#x153;" horiz-adv-x="1745" 
d="M584 -20c-157 0 -285 46 -382 139c-98 92 -147 212 -147 361s49 269 147 362c97 92 225 138 382 138c135 0 242 -38 319 -115c84 77 185 115 303 115c256 6 485 -188 481 -449c0 -39 -5 -80 -15 -123h-605c6 -44 28 -78 65 -102c37 -25 80 -37 129 -37
c72 0 144 37 181 94l227 -152c-91 -149 -241 -231 -441 -231c-124 0 -230 41 -319 124c-92 -83 -200 -124 -325 -124zM705 609c-31 33 -72 50 -121 50s-89 -16 -120 -49s-46 -77 -46 -130s15 -97 46 -130s71 -50 120 -50s90 17 121 50s47 77 47 130s-16 96 -47 129z
M1207 700c-37 0 -69 -12 -95 -35c-27 -23 -42 -51 -45 -83h271c0 31 -13 59 -38 83c-25 23 -56 35 -93 35z" />
    <glyph glyph-name="Racute" unicode="&#x154;" horiz-adv-x="1375" 
d="M150 0v1358h685c134 0 247 -42 340 -127c92 -85 138 -192 138 -323c0 -180 -95 -325 -244 -401l275 -508h-425l-239 456h-133v-455h-397zM1112 1807l-287 -334h-312l167 334h432zM547 1035v-270h221c41 0 75 14 101 43c25 28 38 61 38 100c0 73 -54 127 -139 127h-221z
" />
    <glyph glyph-name="racute" unicode="&#x155;" horiz-adv-x="872" 
d="M126 0v960h350l14 -131c44 97 142 151 258 151c36 0 74 -6 114 -18l-23 -322c-37 14 -74 21 -113 21c-137 0 -216 -81 -216 -230v-431h-384zM934 1447l-287 -334h-312l167 334h432z" />
    <glyph glyph-name="uni0156" unicode="&#x156;" horiz-adv-x="1375" 
d="M547 0h-397v1358h685c134 0 247 -42 340 -127c92 -85 138 -192 138 -323c0 -180 -95 -325 -244 -401l275 -508h-425l-239 456h-133v-455zM539 -548l-7 462h342l-79 -462h-256zM768 1035h-221v-270h221c41 0 75 14 101 43c25 28 38 61 38 100c0 73 -54 127 -139 127z" />
    <glyph glyph-name="uni0157" unicode="&#x157;" horiz-adv-x="872" 
d="M126 0v960h350l14 -131c44 97 142 151 258 151c36 0 74 -6 114 -18l-23 -322c-37 14 -74 21 -113 21c-137 0 -216 -81 -216 -230v-431h-384zM406 -548h-256l-7 462h342z" />
    <glyph glyph-name="Rcaron" unicode="&#x158;" horiz-adv-x="1375" 
d="M150 0v1358h685c134 0 247 -42 340 -127c92 -85 138 -192 138 -323c0 -180 -95 -325 -244 -401l275 -508h-425l-239 456h-133v-455h-397zM540 1481l-287 370h311l104 -160l104 160h312l-287 -370h-257zM768 1035h-221v-270h221c41 0 75 14 101 43c25 28 38 61 38 100
c0 73 -54 127 -139 127z" />
    <glyph glyph-name="rcaron" unicode="&#x159;" horiz-adv-x="872" 
d="M126 0v960h350l14 -131c44 97 142 151 258 151c36 0 74 -6 114 -18l-23 -322c-37 14 -74 21 -113 21c-137 0 -216 -81 -216 -230v-431h-384zM638 1096h-257l-287 370h311l104 -160l104 160h312z" />
    <glyph glyph-name="Sacute" unicode="&#x15a;" horiz-adv-x="1270" 
d="M66 294l285 199c80 -119 192 -183 317 -183c87 0 153 38 153 89c0 28 -15 50 -44 65s-89 35 -178 62c-10 3 -19 7 -30 9c-77 23 -117 35 -187 66c-68 29 -110 56 -158 100c-70 63 -106 145 -109 262c0 82 25 155 75 220c49 64 113 113 192 146c78 33 162 49 252 49
c244 0 411 -107 534 -298l-271 -188c-56 93 -155 157 -267 157c-71 0 -129 -30 -129 -85c0 -57 63 -88 183 -123c111 -31 187 -57 271 -95c42 -19 77 -40 106 -62c89 -69 146 -156 146 -286c0 -133 -70 -247 -175 -314s-235 -104 -367 -104c-267 0 -478 114 -599 314z
M1101 1807l-287 -334h-312l167 334h432z" />
    <glyph glyph-name="sacute" unicode="&#x15b;" horiz-adv-x="986" 
d="M52 161l209 197c55 -61 143 -99 234 -99c52 0 85 16 85 41c5 17 -27 29 -63 40c-11 3 -29 7 -54 14c-25 6 -47 12 -67 18c-191 55 -306 143 -306 299c0 89 38 163 113 222c75 58 171 87 288 87c169 0 301 -55 395 -166l-197 -202c-22 25 -50 47 -85 64s-68 25 -99 25
c-53 0 -79 -12 -79 -35c0 -19 20 -31 59 -43c23 -8 39 -12 72 -22c17 -5 32 -10 45 -14c96 -29 159 -58 223 -102c64 -45 98 -108 98 -187c0 -94 -41 -170 -123 -229c-83 -59 -183 -89 -302 -89c-194 0 -343 60 -446 181zM635 1113h-312l167 334h432z" />
    <glyph glyph-name="Scircumflex" unicode="&#x15c;" horiz-adv-x="1270" 
d="M66 294l285 199c80 -119 192 -183 317 -183c87 0 153 38 153 89c0 28 -15 50 -44 65s-89 35 -178 62c-10 3 -19 7 -30 9c-77 23 -117 35 -187 66c-68 29 -110 56 -158 100c-70 63 -106 145 -109 262c0 82 25 155 75 220c49 64 113 113 192 146c78 33 162 49 252 49
c244 0 411 -107 534 -298l-271 -188c-56 93 -155 157 -267 157c-71 0 -129 -30 -129 -85c0 -57 63 -88 183 -123c111 -31 187 -57 271 -95c42 -19 77 -40 106 -62c89 -69 146 -156 146 -286c0 -133 -70 -247 -175 -314s-235 -104 -367 -104c-267 0 -478 114 -599 314z
M670 1631l-104 -160h-311l287 370h257l287 -370h-312z" />
    <glyph glyph-name="scircumflex" unicode="&#x15d;" horiz-adv-x="986" 
d="M52 161l209 197c55 -61 143 -99 234 -99c52 0 85 16 85 41c5 17 -27 29 -63 40c-11 3 -29 7 -54 14c-25 6 -47 12 -67 18c-191 55 -306 143 -306 299c0 89 38 163 113 222c75 58 171 87 288 87c169 0 301 -55 395 -166l-197 -202c-22 25 -50 47 -85 64s-68 25 -99 25
c-53 0 -79 -12 -79 -35c0 -19 20 -31 59 -43c23 -8 39 -12 72 -22c17 -5 32 -10 45 -14c96 -29 159 -58 223 -102c64 -45 98 -108 98 -187c0 -94 -41 -170 -123 -229c-83 -59 -183 -89 -302 -89c-194 0 -343 60 -446 181zM510 1244l-104 -160h-311l287 370h257l287 -370
h-312z" />
    <glyph glyph-name="Scedilla" unicode="&#x15e;" horiz-adv-x="1270" 
d="M483 -182l67 170c-212 28 -381 135 -484 306l285 199c80 -119 192 -183 317 -183c87 0 153 38 153 89c0 28 -15 50 -44 65s-89 35 -178 62c-10 3 -19 7 -30 9c-77 23 -117 35 -187 66c-68 29 -110 56 -158 100c-70 63 -106 145 -109 262c0 82 25 155 75 220
c49 64 113 113 192 146c78 33 162 49 252 49c244 0 411 -107 534 -298l-271 -188c-56 93 -155 157 -267 157c-71 0 -129 -30 -129 -85c0 -57 63 -88 183 -123c111 -31 187 -57 271 -95c42 -19 77 -40 106 -62c89 -69 146 -156 146 -286c0 -123 -59 -229 -150 -296
c-92 -67 -205 -108 -328 -119l-17 -57c140 -20 218 -90 218 -199c0 -134 -162 -211 -330 -208c-69 0 -126 10 -170 30v182c37 -15 79 -22 126 -22c71 0 114 21 114 54c0 35 -45 55 -120 55h-67z" />
    <glyph glyph-name="scedilla" unicode="&#x15f;" horiz-adv-x="986" 
d="M315 -182l67 170c-138 19 -248 77 -330 173l209 197c55 -61 143 -99 234 -99c52 0 85 16 85 41c5 17 -27 29 -63 40c-11 3 -29 7 -54 14c-25 6 -47 12 -67 18c-191 55 -306 143 -306 299c0 89 38 163 113 222c75 58 171 87 288 87c169 0 301 -55 395 -166l-197 -202
c-22 25 -50 47 -85 64s-68 25 -99 25c-53 0 -79 -12 -79 -35c0 -19 20 -31 59 -43c23 -8 39 -12 72 -22c17 -5 32 -10 45 -14c96 -29 159 -58 223 -102c64 -45 98 -108 98 -187c0 -85 -34 -156 -102 -213c-69 -57 -155 -91 -260 -102l-17 -57c140 -20 218 -90 218 -199
c0 -134 -162 -211 -330 -208c-69 0 -126 10 -170 30v182c37 -15 79 -22 126 -22c71 0 114 21 114 54c0 35 -45 55 -120 55h-67z" />
    <glyph glyph-name="Scaron" unicode="&#x160;" horiz-adv-x="1270" 
d="M665 -20c-267 0 -478 114 -599 314l285 199c80 -119 192 -183 317 -183c87 0 153 38 153 89c0 28 -15 50 -44 65s-89 35 -178 62c-10 3 -19 7 -30 9c-77 23 -117 35 -187 66c-68 29 -110 56 -158 100c-70 63 -106 145 -109 262c0 82 25 155 75 220c49 64 113 113 192 146
c78 33 162 49 252 49c244 0 411 -107 534 -298l-271 -188c-56 93 -155 157 -267 157c-71 0 -129 -30 -129 -85c0 -57 63 -88 183 -123c111 -31 187 -57 271 -95c42 -19 77 -40 106 -62c89 -69 146 -156 146 -286c0 -133 -70 -247 -175 -314s-235 -104 -367 -104zM535 1481
l-287 370h311l104 -160l104 160h312l-287 -370h-257z" />
    <glyph glyph-name="scaron" unicode="&#x161;" horiz-adv-x="986" 
d="M52 161l209 197c55 -61 143 -99 234 -99c52 0 85 16 85 41c5 17 -27 29 -63 40c-11 3 -29 7 -54 14c-25 6 -47 12 -67 18c-191 55 -306 143 -306 299c0 89 38 163 113 222c75 58 171 87 288 87c169 0 301 -55 395 -166l-197 -202c-22 25 -50 47 -85 64s-68 25 -99 25
c-53 0 -79 -12 -79 -35c0 -19 20 -31 59 -43c23 -8 39 -12 72 -22c17 -5 32 -10 45 -14c96 -29 159 -58 223 -102c64 -45 98 -108 98 -187c0 -94 -41 -170 -123 -229c-83 -59 -183 -89 -302 -89c-194 0 -343 60 -446 181zM377 1096l-287 370h311l104 -160l104 160h312
l-287 -370h-257z" />
    <glyph glyph-name="uni0162" unicode="&#x162;" horiz-adv-x="1187" 
d="M389 0v1032h-387v326h1183v-326h-397v-1032h-132l-22 -74c140 -20 218 -90 218 -199c0 -134 -162 -211 -330 -208c-69 0 -126 10 -170 30v182c37 -15 79 -22 126 -22c71 0 114 21 114 54c0 35 -45 55 -120 55h-67l71 182h-87z" />
    <glyph glyph-name="uni0163" unicode="&#x163;" horiz-adv-x="861" 
d="M169 369v289h-144v302h143v308h361v-308h284v-302h-270v-225c0 -92 43 -127 122 -127c59 0 114 11 167 33l20 -299c-28 -16 -68 -30 -120 -42c-53 -12 -105 -18 -158 -18c-19 0 -33 0 -42 1l-16 -55c140 -20 218 -90 218 -199c0 -134 -162 -211 -330 -208
c-69 0 -126 10 -170 30v182c37 -15 79 -22 126 -22c71 0 114 21 114 54c0 35 -45 55 -120 55h-67l78 200c-131 57 -196 174 -196 351z" />
    <glyph glyph-name="Tcaron" unicode="&#x164;" horiz-adv-x="1187" 
d="M389 1032h-387v326h1183v-326h-397v-1032h-399v1032zM722 1481h-257l-287 370h311l104 -160l104 160h312z" />
    <glyph glyph-name="tcaron" unicode="&#x165;" horiz-adv-x="849" 
d="M157 369v289h-144v302h143v308h361v-308h284v-302h-270v-225c0 -92 43 -127 122 -127c59 0 114 11 167 33l20 -299c-28 -16 -68 -30 -120 -42c-53 -12 -105 -18 -158 -18c-230 0 -405 102 -405 389zM611 1052l-7 462h342l-79 -462h-256z" />
    <glyph glyph-name="Tbar" unicode="&#x166;" horiz-adv-x="1253" 
d="M422 786v246h-387v326h1183v-326h-397v-246h257v-184h-257v-602h-399v602h-247v184h247z" />
    <glyph glyph-name="tbar" unicode="&#x167;" horiz-adv-x="872" 
d="M175 658h-144v302h143v308h361v-308h284v-302h-270v-64h249v-194h-247c9 -63 49 -94 120 -94c59 0 114 11 167 33l20 -299c-28 -16 -68 -30 -120 -42c-53 -12 -105 -18 -158 -18c-230 0 -405 102 -405 389v31h-120v194h120v64z" />
    <glyph glyph-name="Utilde" unicode="&#x168;" horiz-adv-x="1451" 
d="M135 497v861h399v-832c0 -135 80 -206 191 -206s192 71 192 206v832h399v-861c0 -351 -244 -517 -591 -517c-236 0 -413 71 -514 228c-51 79 -76 175 -76 289zM461 1465l-140 127c77 156 179 230 288 230c53 0 109 -23 144 -46s79 -46 112 -46c40 0 83 26 129 77
l137 -117c-51 -104 -129 -177 -196 -205c-33 -15 -66 -22 -99 -22c-86 -3 -185 93 -250 89c-40 0 -82 -29 -125 -87z" />
    <glyph glyph-name="utilde" unicode="&#x169;" horiz-adv-x="1240" 
d="M457 -20c-102 0 -185 31 -248 93c-64 62 -96 143 -96 243v644h384v-530c0 -68 48 -115 117 -115s116 47 116 115v530h384v-960h-350l-9 92c-56 -68 -165 -112 -298 -112zM355 1105l-140 127c77 156 179 230 288 230c53 0 109 -23 144 -46s79 -46 112 -46
c40 0 83 26 129 77l137 -117c-51 -104 -129 -177 -196 -205c-33 -15 -66 -22 -99 -22c-86 -3 -185 93 -250 89c-40 0 -82 -29 -125 -87z" />
    <glyph glyph-name="Umacron" unicode="&#x16a;" horiz-adv-x="1451" 
d="M135 497v861h399v-832c0 -135 80 -206 191 -206s192 71 192 206v832h399v-861c0 -351 -244 -517 -591 -517c-236 0 -413 71 -514 228c-51 79 -76 175 -76 289zM430 1486v234h591v-234h-591z" />
    <glyph glyph-name="umacron" unicode="&#x16b;" horiz-adv-x="1240" 
d="M113 316v644h384v-530c0 -68 48 -115 117 -115s116 47 116 115v530h384v-960h-350l-9 92c-56 -68 -165 -112 -298 -112c-102 0 -185 31 -248 93c-64 62 -96 143 -96 243zM916 1384v-234h-591v234h591z" />
    <glyph glyph-name="Ubreve" unicode="&#x16c;" horiz-adv-x="1451" 
d="M135 497v861h399v-832c0 -135 80 -206 191 -206s192 71 192 206v832h399v-861c0 -351 -244 -517 -591 -517c-236 0 -413 71 -514 228c-51 79 -76 175 -76 289zM725 1456c-105 0 -189 32 -252 96s-95 150 -95 257h249c-3 -81 35 -134 98 -134c64 0 102 53 98 134h250
c0 -107 -31 -193 -94 -257s-147 -96 -254 -96z" />
    <glyph glyph-name="ubreve" unicode="&#x16d;" horiz-adv-x="1240" 
d="M113 316v644h384v-530c0 -68 48 -115 117 -115s116 47 116 115v530h384v-960h-350l-9 92c-56 -68 -165 -112 -298 -112c-102 0 -185 31 -248 93c-64 62 -96 143 -96 243zM263 1452h249c-3 -81 35 -134 98 -134c64 0 102 53 98 134h250c0 -107 -31 -193 -94 -257
s-147 -96 -254 -96c-105 0 -189 32 -252 96s-95 150 -95 257z" />
    <glyph glyph-name="Uring" unicode="&#x16e;" horiz-adv-x="1451" 
d="M725 -20c-236 0 -413 71 -514 228c-51 79 -76 175 -76 289v861h399v-832c0 -135 80 -206 191 -206s192 71 192 206v832h399v-861c0 -351 -244 -517 -591 -517zM494 1690c0 66 22 121 66 165c43 44 98 66 165 66c66 0 121 -22 166 -66c44 -44 66 -99 66 -165
c0 -65 -22 -119 -66 -162c-45 -44 -100 -66 -166 -66c-67 0 -122 22 -165 65c-44 43 -66 98 -66 163zM762 1729c-21 23 -53 23 -73 0c-21 -23 -21 -53 0 -75c20 -22 52 -22 73 0c20 22 20 52 0 75z" />
    <glyph glyph-name="uring" unicode="&#x16f;" horiz-adv-x="1240" 
d="M113 316v644h384v-530c0 -68 48 -115 117 -115s116 47 116 115v530h384v-960h-350l-9 92c-56 -68 -165 -112 -298 -112c-102 0 -185 31 -248 93c-64 62 -96 143 -96 243zM379 1288c0 66 22 121 66 165c43 44 98 66 165 66c66 0 121 -22 166 -66c44 -44 66 -99 66 -165
c0 -65 -22 -119 -66 -162c-45 -44 -100 -66 -166 -66c-67 0 -122 22 -165 65c-44 43 -66 98 -66 163zM647 1327c-21 23 -53 23 -73 0c-21 -23 -21 -53 0 -75c20 -22 52 -22 73 0c20 22 20 52 0 75z" />
    <glyph glyph-name="Uhungarumlaut" unicode="&#x170;" horiz-adv-x="1451" 
d="M135 497v861h399v-832c0 -135 80 -206 191 -206s192 71 192 206v832h399v-861c0 -351 -244 -517 -591 -517c-236 0 -413 71 -514 228c-51 79 -76 175 -76 289zM1061 1473h-291l197 334h402zM667 1473h-291l167 334h372z" />
    <glyph glyph-name="uhungarumlaut" unicode="&#x171;" horiz-adv-x="1240" 
d="M113 316v644h384v-530c0 -68 48 -115 117 -115s116 47 116 115v530h384v-960h-350l-9 92c-56 -68 -165 -112 -298 -112c-102 0 -185 31 -248 93c-64 62 -96 143 -96 243zM1262 1447l-308 -334h-291l197 334h402zM808 1447l-248 -334h-291l167 334h372z" />
    <glyph glyph-name="Uogonek" unicode="&#x172;" horiz-adv-x="1451" 
d="M135 497v861h399v-832c0 -135 80 -206 191 -206s192 71 192 206v832h399v-861c0 -276 -151 -446 -406 -499c-120 -63 -192 -128 -192 -176c0 -41 32 -67 83 -67c41 0 81 9 119 27l64 -206c-62 -38 -139 -57 -230 -57c-86 0 -154 20 -204 60c-51 41 -76 94 -76 161
c0 91 57 172 170 243c-157 13 -281 62 -372 149s-137 208 -137 365z" />
    <glyph glyph-name="uogonek" unicode="&#x173;" horiz-adv-x="1240" 
d="M113 316v644h384v-530c0 -68 48 -115 117 -115s116 47 116 115v530h384v-960h-110c-123 -64 -196 -129 -196 -178c0 -41 32 -67 83 -67c41 0 81 9 119 27l64 -206c-62 -38 -139 -57 -230 -57c-86 0 -154 20 -204 60c-51 41 -76 94 -76 161c0 99 67 186 200 261l-9 91
c-56 -68 -165 -112 -298 -112c-102 0 -185 31 -248 93c-64 62 -96 143 -96 243z" />
    <glyph glyph-name="Wcircumflex" unicode="&#x174;" horiz-adv-x="1991" 
d="M825 0h-466l-355 1358h400l210 -892l222 873h320l221 -873l210 892h400l-355 -1358h-466l-170 582zM891 1471h-311l287 370h257l287 -370h-312l-104 160z" />
    <glyph glyph-name="wcircumflex" unicode="&#x175;" horiz-adv-x="1612" 
d="M286 0l-273 960h377l135 -565l158 541h246l157 -541l136 565h377l-273 -960h-407l-114 380l-112 -380h-407zM702 1084h-311l287 370h257l287 -370h-312l-104 160z" />
    <glyph glyph-name="Ycircumflex" unicode="&#x176;" horiz-adv-x="1430" 
d="M518 0v510l-529 848h472l261 -515l265 515h454l-525 -848v-510h-398zM611 1471h-311l287 370h257l287 -370h-312l-104 160z" />
    <glyph glyph-name="ycircumflex" unicode="&#x177;" horiz-adv-x="1153" 
d="M400 10l-402 950h398l181 -572l180 572h398l-428 -1078c-81 -205 -212 -302 -429 -302c-97 0 -178 18 -243 54l54 281c39 -19 78 -29 118 -29c84 0 144 31 173 124zM472 1084h-311l287 370h257l287 -370h-312l-104 160z" />
    <glyph glyph-name="Ydieresis" unicode="&#x178;" horiz-adv-x="1430" 
d="M518 510l-529 848h472l261 -515l265 515h454l-525 -848v-510h-398v510zM909 1484c-97 0 -166 67 -166 166c0 100 69 168 166 168c100 0 169 -69 169 -168s-69 -166 -169 -166zM640 1530c-31 -31 -72 -46 -121 -46s-89 15 -120 46s-47 71 -47 120c0 100 68 168 167 168
c49 0 90 -16 121 -47s47 -72 47 -121s-16 -89 -47 -120z" />
    <glyph glyph-name="Zacute" unicode="&#x179;" horiz-adv-x="1234" 
d="M1183 0h-1129v280l632 758h-616v320h1102v-288l-626 -741h637v-329zM651 1807h432l-287 -334h-312z" />
    <glyph glyph-name="zacute" unicode="&#x17a;" horiz-adv-x="941" 
d="M898 0h-841v230l376 424h-371v306h806v-228l-379 -426h409v-306zM472 1447h432l-287 -334h-312z" />
    <glyph glyph-name="Zdotaccent" unicode="&#x17b;" horiz-adv-x="1234" 
d="M54 0v280l632 758h-616v320h1102v-288l-626 -741h637v-329h-1129zM626 1453c-63 0 -113 19 -152 58s-58 89 -58 152s19 115 58 154s89 59 152 59s115 -20 154 -59s59 -91 59 -154s-20 -113 -59 -152s-91 -58 -154 -58z" />
    <glyph glyph-name="zdotaccent" unicode="&#x17c;" horiz-adv-x="941" 
d="M57 0v230l376 424h-371v306h806v-228l-379 -426h409v-306h-841zM479 1119c-63 0 -113 19 -152 58s-58 89 -58 152s19 115 58 154s89 59 152 59s115 -20 154 -59s59 -91 59 -154s-20 -113 -59 -152s-91 -58 -154 -58z" />
    <glyph glyph-name="Zcaron" unicode="&#x17d;" horiz-adv-x="1234" 
d="M1183 0h-1129v280l632 758h-616v320h1102v-288l-626 -741h637v-329zM756 1481h-257l-287 370h311l104 -160l104 160h312z" />
    <glyph glyph-name="zcaron" unicode="&#x17e;" horiz-adv-x="941" 
d="M898 0h-841v230l376 424h-371v306h806v-228l-379 -426h409v-306zM647 1096h-257l-287 370h311l104 -160l104 160h312z" />
    <glyph glyph-name="uni018F" unicode="&#x18f;" horiz-adv-x="1467" 
d="M56 633c0 51 4 102 13 154h934c-11 69 -44 126 -97 169s-118 65 -195 65c-117 0 -213 -54 -287 -162l-312 192c60 101 143 181 250 240c106 58 221 87 346 87c401 6 705 -298 698 -702c0 -199 -75 -378 -195 -500s-294 -197 -483 -197c-188 0 -359 68 -478 181
c-120 113 -194 282 -194 473zM1005 525h-560c9 -60 40 -109 93 -146c52 -38 116 -57 191 -57c71 0 133 19 185 58c52 38 82 86 91 145z" />
    <glyph glyph-name="florin" unicode="&#x192;" horiz-adv-x="1211" 
d="M20 38l79 273c27 -17 62 -25 103 -25c105 0 164 40 176 121l28 194h-146l43 298h145l13 87c18 119 72 215 161 286s199 106 330 106c39 0 80 -5 124 -16s80 -23 107 -38l-87 -270c-34 21 -73 32 -116 32c-89 0 -155 -46 -166 -117l-11 -70h258l-43 -298h-243l-33 -226
c-18 -123 -70 -220 -156 -290c-87 -70 -197 -105 -330 -105c-41 0 -83 6 -128 18s-81 25 -108 40z" />
    <glyph glyph-name="uni019D" unicode="&#x19d;" horiz-adv-x="1592" 
d="M-110 -373l32 288c36 -15 76 -23 119 -23c69 0 109 42 109 127v1339h325l579 -725v725h388v-1358h-311l-593 727v-745c1 -284 -227 -403 -407 -402c-98 0 -178 16 -241 47z" />
    <glyph glyph-name="Gcaron" unicode="&#x1e6;" horiz-adv-x="1500" 
d="M790 -20c-211 0 -399 76 -526 200s-203 303 -203 500c0 199 76 376 203 500c127 123 315 198 526 198c119 0 229 -27 331 -82s182 -130 241 -225l-290 -201c-60 104 -161 159 -282 159c-99 0 -177 -32 -236 -96s-89 -148 -89 -252c0 -103 30 -188 90 -253
c60 -66 138 -99 235 -99c128 0 217 55 252 160h-298v292h700c3 -38 5 -81 5 -128c0 -206 -61 -370 -183 -491c-123 -121 -281 -182 -476 -182zM652 1481l-287 370h311l104 -160l104 160h312l-287 -370h-257z" />
    <glyph glyph-name="gcaron" unicode="&#x1e7;" horiz-adv-x="1265" 
d="M61 489c0 141 41 258 123 351s186 140 312 140c111 0 196 -36 256 -109l9 89h382v-913c-1 -197 -115 -329 -269 -398c-105 -48 -218 -69 -334 -69c-108 0 -202 19 -283 57s-143 81 -186 128l197 232c71 -69 158 -104 260 -104c60 0 112 16 157 47s67 70 67 117v32
c-58 -59 -143 -89 -256 -89c-126 0 -230 47 -312 140s-123 210 -123 349zM709 1095h-257l-287 370h311l104 -160l104 160h312zM596 660c-103 0 -172 -69 -172 -170c0 -100 69 -168 172 -168c100 0 168 68 168 168c0 101 -68 170 -168 170z" />
    <glyph glyph-name="uni01EA" unicode="&#x1ea;" horiz-adv-x="1560" 
d="M696 -16c-188 19 -341 92 -458 220c-117 127 -176 286 -176 477c-6 405 307 703 721 697c205 0 389 -72 514 -194s201 -301 201 -504c0 -173 -49 -321 -146 -443c-97 -123 -227 -202 -388 -238c-130 -68 -195 -127 -195 -177c0 -41 32 -67 83 -67c41 0 81 9 119 27
l64 -206c-62 -38 -139 -57 -230 -57c-86 0 -154 20 -204 60c-51 41 -76 94 -76 161c0 92 57 173 171 244zM467 680c0 -103 29 -186 88 -249c59 -64 135 -96 230 -96c93 0 167 32 224 96c57 63 85 146 85 249c0 101 -28 183 -85 246s-132 94 -224 94c-95 0 -171 -31 -230 -94
s-88 -145 -88 -246z" />
    <glyph glyph-name="uni01EB" unicode="&#x1eb;" horiz-adv-x="1168" 
d="M480 -12c-129 20 -232 74 -309 163s-116 198 -116 329c0 149 49 269 147 362c97 92 225 138 382 138s285 -46 383 -138c97 -93 146 -213 146 -362c0 -121 -34 -225 -101 -311s-158 -143 -273 -171c-120 -63 -192 -127 -192 -176c0 -41 32 -67 83 -67c41 0 81 9 119 27
l64 -206c-62 -38 -139 -57 -230 -57c-86 0 -154 20 -204 60c-51 41 -76 94 -76 161c0 93 59 176 177 248zM704 610c-31 33 -71 49 -120 49s-89 -16 -120 -49s-46 -77 -46 -130s15 -97 46 -130s71 -50 120 -50s89 17 120 50s46 77 46 130s-15 97 -46 130z" />
    <glyph glyph-name="Aringacute" unicode="&#x1fa;" horiz-adv-x="1487" 
d="M498 227l-88 -227h-426l522 1358h476l521 -1358h-426l-88 227h-491zM743 1462c-67 0 -122 22 -165 65c-44 43 -66 98 -66 163c0 66 22 121 66 165c43 44 98 66 165 66c66 0 121 -22 166 -66c44 -44 66 -99 66 -165c0 -65 -22 -119 -66 -162c-45 -44 -100 -66 -166 -66z
M896 1962h-312l167 334h432zM744 982l-156 -454h311zM780 1729c-21 23 -53 23 -73 0c-21 -23 -21 -53 0 -75c20 -22 52 -22 73 0c20 22 20 52 0 75z" />
    <glyph glyph-name="aringacute" unicode="&#x1fb;" horiz-adv-x="1119" 
d="M253 573l-191 219c40 45 101 88 182 128s169 60 263 60c145 0 264 -34 356 -103c91 -69 143 -188 143 -343v-534h-354v98c-25 -39 -62 -68 -110 -88s-98 -30 -149 -30c-97 0 -176 27 -236 81c-61 54 -91 123 -91 208c0 63 20 117 60 163c39 45 88 78 147 99
c58 20 120 30 187 30c61 0 116 -6 165 -19v3c0 72 -56 123 -153 123c-78 0 -151 -32 -219 -95zM549 1060c-67 0 -122 22 -165 65c-44 43 -66 98 -66 163c0 66 22 121 66 165c43 44 98 66 165 66c66 0 121 -22 166 -66c44 -44 66 -99 66 -165c0 -65 -22 -119 -66 -162
c-45 -44 -100 -66 -166 -66zM985 1901l-287 -334h-312l167 334h432zM417 291c0 -39 35 -64 83 -64c73 0 125 51 125 120c-28 11 -60 16 -97 16c-64 0 -111 -28 -111 -72zM586 1327c-21 23 -53 23 -73 0c-21 -23 -21 -53 0 -75c20 -22 52 -22 73 0c20 22 20 52 0 75z" />
    <glyph glyph-name="AEacute" unicode="&#x1fc;" horiz-adv-x="2071" 
d="M355 0h-425l742 1358h1233v-320h-594v-188h521v-319h-521v-212h604v-319h-1002v227h-432zM1797 1807l-287 -334h-312l167 334h432zM913 528v534l-288 -534h288z" />
    <glyph glyph-name="aeacute" unicode="&#x1fd;" horiz-adv-x="1634" 
d="M254 573l-191 219c40 45 101 88 182 128s169 60 263 60c127 0 224 -40 292 -119c83 79 184 119 305 119c252 6 474 -188 471 -449c0 -39 -5 -80 -15 -123h-585c9 -88 83 -132 172 -132c79 0 145 32 197 95l215 -194c-29 -47 -82 -91 -161 -133c-79 -43 -169 -64 -272 -64
c-139 0 -254 47 -343 140c-79 -93 -189 -140 -330 -140c-115 0 -208 27 -279 81c-72 54 -108 123 -108 208c0 63 20 117 60 163c39 45 88 78 147 99c58 20 120 30 187 30c61 0 116 -6 165 -19v3c0 72 -56 123 -153 123c-78 0 -151 -32 -219 -95zM1254 1447l-287 -334h-312
l167 334h432zM976 582h251c0 31 -12 59 -35 83c-23 23 -52 35 -86 35c-69 0 -123 -53 -130 -118zM529 372c-64 0 -111 -28 -111 -72c0 -39 35 -64 83 -64c73 0 125 51 125 120c-28 11 -60 16 -97 16z" />
    <glyph glyph-name="Oslashacute" unicode="&#x1fe;" horiz-adv-x="1560" 
d="M198 -25l112 161c-157 125 -248 318 -248 545c-6 405 307 703 721 697c124 0 237 -25 340 -74l111 160l128 -88l-108 -155c155 -127 244 -317 244 -541c0 -204 -76 -383 -201 -505s-309 -195 -514 -195c-126 0 -240 25 -343 74l-117 -168zM533 457l376 539
c-37 16 -79 24 -124 24c-95 0 -171 -31 -230 -94s-88 -145 -88 -246c0 -88 22 -162 66 -223zM1030 900l-376 -539c40 -17 84 -26 131 -26c93 0 167 32 224 96c57 63 85 146 85 249c0 86 -21 159 -64 220zM958 1473h-312l167 334h432z" />
    <glyph glyph-name="oslashacute" unicode="&#x1ff;" horiz-adv-x="1168" 
d="M60 -58l143 176c-99 93 -148 213 -148 362s49 269 147 362c97 92 225 138 382 138c103 0 193 -20 271 -61l149 184l104 -85l-143 -175c99 -93 148 -214 148 -363s-49 -269 -146 -361c-98 -93 -226 -139 -383 -139c-101 0 -192 20 -272 61l-149 -182zM1024 1447l-287 -334
h-312l167 334h432zM735 560l-206 -252c18 -5 36 -8 55 -8c99 0 166 73 166 180c0 31 -5 57 -15 80zM433 400l204 251c-18 5 -36 8 -53 8c-99 0 -166 -72 -166 -179c0 -29 5 -56 15 -80z" />
    <glyph glyph-name="uni0218" unicode="&#x218;" horiz-adv-x="1270" 
d="M66 294l285 199c80 -119 192 -183 317 -183c87 0 153 38 153 89c0 28 -15 50 -44 65s-89 35 -178 62c-10 3 -19 7 -30 9c-77 23 -117 35 -187 66c-68 29 -110 56 -158 100c-70 63 -106 145 -109 262c0 82 25 155 75 220c49 64 113 113 192 146c78 33 162 49 252 49
c244 0 411 -107 534 -298l-271 -188c-56 93 -155 157 -267 157c-71 0 -129 -30 -129 -85c0 -57 63 -88 183 -123c111 -31 187 -57 271 -95c42 -19 77 -40 106 -62c89 -69 146 -156 146 -286c0 -133 -70 -247 -175 -314s-235 -104 -367 -104c-267 0 -478 114 -599 314z
M502 -548l-7 462h342l-79 -462h-256z" />
    <glyph glyph-name="uni0219" unicode="&#x219;" horiz-adv-x="986" 
d="M498 -20c-194 0 -343 60 -446 181l209 197c55 -61 143 -99 234 -99c52 0 85 16 85 41c5 17 -27 29 -63 40c-11 3 -29 7 -54 14c-25 6 -47 12 -67 18c-191 55 -306 143 -306 299c0 89 38 163 113 222c75 58 171 87 288 87c169 0 301 -55 395 -166l-197 -202
c-22 25 -50 47 -85 64s-68 25 -99 25c-53 0 -79 -12 -79 -35c0 -19 20 -31 59 -43c23 -8 39 -12 72 -22c17 -5 32 -10 45 -14c96 -29 159 -58 223 -102c64 -45 98 -108 98 -187c0 -94 -41 -170 -123 -229c-83 -59 -183 -89 -302 -89zM329 -548l-7 462h342l-79 -462h-256z
" />
    <glyph glyph-name="uni021A" unicode="&#x21a;" horiz-adv-x="1187" 
d="M2 1032v326h1183v-326h-397v-1032h-399v1032h-387zM427 -548l-7 462h342l-79 -462h-256z" />
    <glyph glyph-name="uni021B" unicode="&#x21b;" horiz-adv-x="861" 
d="M169 369v289h-144v302h143v308h361v-308h284v-302h-270v-225c0 -92 43 -127 122 -127c59 0 114 11 167 33l20 -299c-28 -16 -68 -30 -120 -42c-53 -12 -105 -18 -158 -18c-230 0 -405 102 -405 389zM287 -548l-7 462h342l-79 -462h-256z" />
    <glyph glyph-name="uni0232" unicode="&#x232;" horiz-adv-x="1430" 
d="M518 0v510l-529 848h472l261 -515l265 515h454l-525 -848v-510h-398zM420 1486v234h591v-234h-591z" />
    <glyph glyph-name="uni0233" unicode="&#x233;" horiz-adv-x="1153" 
d="M400 10l-402 950h398l181 -572l180 572h398l-428 -1078c-81 -205 -212 -302 -429 -302c-97 0 -178 18 -243 54l54 281c39 -19 78 -29 118 -29c84 0 144 31 173 124zM281 1150v234h591v-234h-591z" />
    <glyph glyph-name="uni0237" unicode="&#x237;" horiz-adv-x="599" 
d="M-160 -373l32 288c36 -15 76 -23 119 -23c69 0 109 42 109 127v941h373v-978c0 -170 -80 -282 -179 -343c-69 -42 -141 -59 -213 -59c-98 0 -178 16 -241 47z" />
    <glyph glyph-name="uni0259" unicode="&#x259;" horiz-adv-x="1106" 
d="M-11 429c0 39 5 80 15 123h605c-11 88 -87 132 -182 132c-81 0 -152 -38 -199 -102l-223 201c25 40 78 85 151 126s181 71 292 71c153 0 278 -47 375 -140c97 -94 145 -215 145 -362c6 -279 -208 -502 -498 -498c-256 -6 -485 188 -481 449zM609 378h-271
c0 -31 13 -59 38 -82c25 -24 56 -36 93 -36s69 12 96 35c26 23 41 51 44 83z" />
    <glyph glyph-name="uni0272" unicode="&#x272;" horiz-adv-x="1240" 
d="M-94 -373l32 288c29 -15 62 -23 99 -23c59 0 89 42 89 127v941h350l9 -92c56 68 165 112 298 112c102 0 185 -31 249 -93c63 -62 95 -143 95 -243v-644h-384v530c0 68 -48 115 -117 115s-116 -47 -116 -115v-548c1 -284 -215 -403 -383 -402c-90 0 -164 16 -221 47z" />
    <glyph glyph-name="circumflex" unicode="&#x2c6;" horiz-adv-x="1079" 
d="M435 1471h-311l287 370h257l287 -370h-312l-104 160z" />
    <glyph glyph-name="caron" unicode="&#x2c7;" horiz-adv-x="1079" 
d="M668 1481h-257l-287 370h311l104 -160l104 160h312z" />
    <glyph glyph-name="breve" unicode="&#x2d8;" horiz-adv-x="923" 
d="M114 1809h249c-3 -81 35 -134 98 -134c64 0 102 53 98 134h250c0 -107 -31 -193 -94 -257s-147 -96 -254 -96c-105 0 -189 32 -252 96s-95 150 -95 257z" />
    <glyph glyph-name="dotaccent" unicode="&#x2d9;" horiz-adv-x="671" 
d="M124 1663c0 63 19 115 58 154s89 59 152 59s115 -20 154 -59s59 -91 59 -154s-20 -113 -59 -152s-91 -58 -154 -58s-113 19 -152 58s-58 89 -58 152z" />
    <glyph glyph-name="ring" unicode="&#x2da;" horiz-adv-x="711" 
d="M355 1462c-67 0 -122 22 -165 65c-44 43 -66 98 -66 163c0 66 22 121 66 165c43 44 98 66 165 66c66 0 121 -22 166 -66c44 -44 66 -99 66 -165c0 -65 -22 -119 -66 -162c-45 -44 -100 -66 -166 -66zM319 1729c-21 -23 -21 -53 0 -75c20 -22 52 -22 73 0
c20 22 20 52 0 75c-21 23 -53 23 -73 0z" />
    <glyph glyph-name="ogonek" unicode="&#x2db;" horiz-adv-x="706" 
d="M105 -260c0 117 92 217 275 299l165 -39c-123 -64 -196 -129 -196 -178c0 -41 32 -67 83 -67c41 0 81 9 119 27l64 -206c-62 -38 -139 -57 -230 -57c-86 0 -154 20 -204 60c-51 41 -76 94 -76 161z" />
    <glyph glyph-name="tilde" unicode="&#x2dc;" horiz-adv-x="1058" 
d="M264 1465l-140 127c77 156 179 230 288 230c53 0 109 -23 144 -46s79 -46 112 -46c40 0 83 26 129 77l137 -117c-51 -104 -129 -177 -196 -205c-33 -15 -66 -22 -99 -22c-86 -3 -185 93 -250 89c-40 0 -82 -29 -125 -87z" />
    <glyph glyph-name="hungarumlaut" unicode="&#x2dd;" horiz-adv-x="1271" 
d="M829 1473h-291l197 334h402zM683 1807l-248 -334h-291l167 334h372z" />
    <glyph glyph-name="acutecomb" unicode="&#x301;" horiz-adv-x="847" 
d="M291 2277h432l-287 -334h-312z" />
    <glyph glyph-name="uni030A" unicode="&#x30a;" horiz-adv-x="711" 
d="M355 1462c-67 0 -122 22 -165 65c-44 43 -66 98 -66 163c0 66 22 121 66 165c43 44 98 66 165 66c66 0 121 -22 166 -66c44 -44 66 -99 66 -165c0 -65 -22 -119 -66 -162c-45 -44 -100 -66 -166 -66zM319 1729c-21 -23 -21 -53 0 -75c20 -22 52 -22 73 0
c20 22 20 52 0 75c-21 23 -53 23 -73 0z" />
    <glyph glyph-name="dotbelowcomb" unicode="&#x323;" horiz-adv-x="649" 
d="M124 -287c0 55 20 102 60 141c39 39 85 59 138 59c55 0 102 -20 143 -61c40 -40 60 -86 60 -139c0 -55 -21 -101 -62 -138s-88 -56 -141 -56c-54 0 -100 19 -139 58s-59 85 -59 136z" />
    <glyph glyph-name="uni0326" unicode="&#x326;" horiz-adv-x="590" 
d="M387 -548h-256l-7 462h342z" />
    <glyph glyph-name="uni03BC" unicode="&#x3bc;" horiz-adv-x="1253" 
d="M494 -19v-380h-368v1359h384v-530c0 -68 48 -115 117 -115s116 47 116 115v530h384v-960h-350l-9 92c-52 -64 -151 -106 -274 -111z" />
    <glyph glyph-name="pi" unicode="&#x3c0;" horiz-adv-x="1404" 
d="M11 802v327h1340v-164c-1 -73 -1 -127 -1 -163h-151v-404c0 -75 57 -107 138 -94v-314c-6 -3 -22 -5 -49 -7s-45 -3 -56 -3c-127 0 -226 30 -299 91s-109 155 -109 282v449h-279v-804h-375v804h-159z" />
    <glyph glyph-name="Wgrave" unicode="&#x1e80;" horiz-adv-x="1991" 
d="M825 0h-466l-355 1358h400l210 -892l222 873h320l221 -873l210 892h400l-355 -1358h-466l-170 582zM829 1473l-287 334h432l167 -334h-312z" />
    <glyph glyph-name="wgrave" unicode="&#x1e81;" horiz-adv-x="1612" 
d="M286 0l-273 960h377l135 -565l158 541h246l157 -541l136 565h377l-273 -960h-407l-114 380l-112 -380h-407zM958 1121h-312l-287 334h432z" />
    <glyph glyph-name="Wacute" unicode="&#x1e82;" horiz-adv-x="1991" 
d="M825 0h-466l-355 1358h400l210 -892l222 873h320l221 -873l210 892h400l-355 -1358h-466l-170 582zM1454 1807l-287 -334h-312l167 334h432z" />
    <glyph glyph-name="wacute" unicode="&#x1e83;" horiz-adv-x="1612" 
d="M693 0h-407l-273 960h377l135 -565l158 541h246l157 -541l136 565h377l-273 -960h-407l-114 380zM1287 1447l-287 -334h-312l167 334h432z" />
    <glyph glyph-name="Wdieresis" unicode="&#x1e84;" horiz-adv-x="1991" 
d="M825 0h-466l-355 1358h400l210 -892l222 873h320l221 -873l210 892h400l-355 -1358h-466l-170 582zM1190 1484c-97 0 -166 67 -166 166c0 100 69 168 166 168c100 0 169 -69 169 -168s-69 -166 -169 -166zM921 1530c-31 -31 -72 -46 -121 -46s-89 15 -120 46
s-47 71 -47 120c0 100 68 168 167 168c49 0 90 -16 121 -47s47 -72 47 -121s-16 -89 -47 -120z" />
    <glyph glyph-name="wdieresis" unicode="&#x1e85;" horiz-adv-x="1612" 
d="M286 0l-273 960h377l135 -565l158 541h246l157 -541l136 565h377l-273 -960h-407l-114 380l-112 -380h-407zM834 1313c0 100 69 168 166 168c100 0 169 -69 169 -168s-69 -166 -169 -166c-97 0 -166 67 -166 166zM731 1193c-31 -31 -72 -46 -121 -46s-89 15 -120 46
s-47 71 -47 120c0 100 68 168 167 168c49 0 90 -16 121 -47s47 -72 47 -121s-16 -89 -47 -120z" />
    <glyph glyph-name="Germandbls" unicode="&#x1e9e;" horiz-adv-x="1472" 
d="M519 790v-790h-385v822c-7 312 267 561 626 556c140 0 276 -40 370 -97s158 -114 198 -170v-161l-272 -198c105 -9 191 -47 258 -114s100 -155 100 -262c0 -113 -43 -208 -128 -283c-86 -75 -193 -113 -321 -113c-167 0 -298 52 -393 157l223 226c33 -40 75 -60 125 -60
c65 0 114 46 114 111c0 73 -65 118 -166 118h-208v221l299 233c-45 43 -110 65 -197 65c-71 0 -129 -25 -174 -74c-46 -49 -69 -112 -69 -187z" />
    <glyph glyph-name="uni1EA0" unicode="&#x1ea0;" horiz-adv-x="1487" 
d="M498 227l-88 -227h-426l522 1358h476l521 -1358h-426l-88 227h-491zM741 -481c-54 0 -100 19 -139 58s-59 85 -59 136c0 55 20 102 60 141c39 39 85 59 138 59c55 0 103 -20 143 -61c40 -40 60 -86 60 -139c0 -55 -21 -101 -62 -138s-88 -56 -141 -56zM744 982l-156 -454
h311z" />
    <glyph glyph-name="uni1EA1" unicode="&#x1ea1;" horiz-adv-x="1119" 
d="M253 573l-191 219c40 45 101 88 182 128s169 60 263 60c145 0 264 -34 356 -103c91 -69 143 -188 143 -343v-534h-354v98c-25 -39 -62 -68 -110 -88s-98 -30 -149 -30c-97 0 -176 27 -236 81c-61 54 -91 123 -91 208c0 63 20 117 60 163c39 45 88 78 147 99
c58 20 120 30 187 30c61 0 116 -6 165 -19v3c0 72 -56 123 -153 123c-78 0 -151 -32 -219 -95zM567 -481c-54 0 -100 19 -139 58s-59 85 -59 136c0 55 20 102 60 141c39 39 85 59 138 59c55 0 103 -20 143 -61c40 -40 60 -86 60 -139c0 -55 -21 -101 -62 -138
s-88 -56 -141 -56zM417 291c0 -39 35 -64 83 -64c73 0 125 51 125 120c-28 11 -60 16 -97 16c-64 0 -111 -28 -111 -72z" />
    <glyph glyph-name="uni1EB8" unicode="&#x1eb8;" horiz-adv-x="1213" 
d="M1152 0h-1002v1358h992v-320h-594v-188h521v-319h-521v-212h604v-319zM464 -287c0 55 20 102 60 141c39 39 85 59 138 59c55 0 102 -20 143 -61c40 -40 60 -86 60 -139c0 -55 -21 -101 -62 -138s-88 -56 -141 -56c-54 0 -100 19 -139 58s-59 85 -59 136z" />
    <glyph glyph-name="uni1EB9" unicode="&#x1eb9;" horiz-adv-x="1092" 
d="M576 -20c-153 0 -277 47 -374 141c-97 93 -146 214 -146 361c-6 279 207 502 498 498c256 6 485 -188 481 -449c0 -39 -5 -80 -15 -123h-605c11 -88 87 -132 182 -132c81 0 152 38 199 102l223 -201c-25 -40 -78 -85 -151 -126s-181 -71 -292 -71zM574 -481
c-54 0 -100 19 -139 58s-59 85 -59 136c0 55 20 102 60 141c39 39 85 59 138 59c55 0 102 -20 143 -61c40 -40 60 -86 60 -139c0 -55 -21 -101 -62 -138s-88 -56 -141 -56zM555 700c-37 0 -69 -12 -95 -35c-27 -23 -42 -51 -45 -83h271c0 31 -13 59 -38 83
c-25 23 -56 35 -93 35z" />
    <glyph glyph-name="uni1EBC" unicode="&#x1ebc;" horiz-adv-x="1213" 
d="M1152 0h-1002v1358h992v-320h-594v-188h521v-319h-521v-212h604v-319zM394 1465l-140 127c77 156 179 230 288 230c53 0 109 -23 144 -46s79 -46 112 -46c40 0 83 26 129 77l137 -117c-51 -104 -129 -177 -196 -205c-33 -15 -66 -22 -99 -22c-86 -3 -185 93 -250 89
c-40 0 -82 -29 -125 -87z" />
    <glyph glyph-name="uni1EBD" unicode="&#x1ebd;" horiz-adv-x="1092" 
d="M56 482c-6 279 207 502 498 498c256 6 485 -188 481 -449c0 -39 -5 -80 -15 -123h-605c11 -88 87 -132 182 -132c81 0 152 38 199 102l223 -201c-25 -40 -78 -85 -151 -126s-181 -71 -292 -71c-153 0 -277 47 -374 141c-97 93 -146 214 -146 361zM281 1105l-140 127
c77 156 179 230 288 230c53 0 109 -23 144 -46s79 -46 112 -46c40 0 83 26 129 77l137 -117c-51 -104 -129 -177 -196 -205c-33 -15 -66 -22 -99 -22c-86 -3 -185 93 -250 89c-40 0 -82 -29 -125 -87zM415 582h271c0 31 -13 59 -38 83c-25 23 -56 35 -93 35s-69 -12 -95 -35
c-27 -23 -42 -51 -45 -83z" />
    <glyph glyph-name="uni1ECA" unicode="&#x1eca;" horiz-adv-x="699" 
d="M150 0v1358h399v-1358h-399zM149 -287c0 55 20 102 60 141c39 39 85 59 138 59c55 0 103 -20 143 -61c40 -40 60 -86 60 -139c0 -55 -21 -101 -62 -138s-88 -56 -141 -56c-54 0 -100 19 -139 58s-59 85 -59 136z" />
    <glyph glyph-name="uni1ECB" unicode="&#x1ecb;" horiz-adv-x="636" 
d="M126 0v960h384v-960h-384zM316 1119c-63 0 -113 19 -152 58s-58 89 -58 152s19 115 58 154s89 59 152 59s115 -20 154 -59s59 -91 59 -154s-20 -113 -59 -152s-91 -58 -154 -58zM315 -481c-54 0 -100 19 -139 58s-59 85 -59 136c0 55 20 102 60 141c39 39 85 59 138 59
c55 0 103 -20 143 -61c40 -40 60 -86 60 -139c0 -55 -21 -101 -62 -138s-88 -56 -141 -56z" />
    <glyph glyph-name="uni1ECC" unicode="&#x1ecc;" horiz-adv-x="1560" 
d="M783 -20c-208 0 -391 74 -518 196s-203 301 -203 505c-6 405 307 703 721 697c205 0 389 -72 514 -194s201 -301 201 -504c0 -204 -76 -383 -201 -505s-309 -195 -514 -195zM467 680c0 -103 29 -186 88 -249c59 -64 135 -96 230 -96c93 0 167 32 224 96
c57 63 85 146 85 249c0 101 -28 183 -85 246s-132 94 -224 94c-95 0 -171 -31 -230 -94s-88 -145 -88 -246zM580 -287c0 55 20 102 60 141c39 39 85 59 138 59c55 0 102 -20 143 -61c40 -40 60 -86 60 -139c0 -55 -21 -101 -62 -138s-88 -56 -141 -56c-54 0 -100 19 -139 58
s-59 85 -59 136z" />
    <glyph glyph-name="uni1ECD" unicode="&#x1ecd;" horiz-adv-x="1168" 
d="M967 119c-98 -93 -226 -139 -383 -139s-285 46 -382 139c-98 92 -147 212 -147 361s49 269 147 362c97 92 225 138 382 138s285 -46 383 -138c97 -93 146 -213 146 -362s-49 -269 -146 -361zM384 -287c0 55 20 102 60 141c39 39 85 59 138 59c55 0 102 -20 143 -61
c40 -40 60 -86 60 -139c0 -55 -21 -101 -62 -138s-88 -56 -141 -56c-54 0 -100 19 -139 58s-59 85 -59 136zM704 610c-31 33 -71 49 -120 49s-89 -16 -120 -49s-46 -77 -46 -130s15 -97 46 -130s71 -50 120 -50s89 17 120 50s46 77 46 130s-15 97 -46 130z" />
    <glyph glyph-name="uni1EE4" unicode="&#x1ee4;" horiz-adv-x="1451" 
d="M135 497v861h399v-832c0 -135 80 -206 191 -206s192 71 192 206v832h399v-861c0 -351 -244 -517 -591 -517c-236 0 -413 71 -514 228c-51 79 -76 175 -76 289zM525 -287c0 55 20 102 60 141c39 39 85 59 138 59c55 0 103 -20 143 -61c40 -40 60 -86 60 -139
c0 -55 -21 -101 -62 -138s-88 -56 -141 -56c-54 0 -100 19 -139 58s-59 85 -59 136z" />
    <glyph glyph-name="uni1EE5" unicode="&#x1ee5;" horiz-adv-x="1240" 
d="M113 316v644h384v-530c0 -68 48 -115 117 -115s116 47 116 115v530h384v-960h-350l-9 92c-56 -68 -165 -112 -298 -112c-102 0 -185 31 -248 93c-64 62 -96 143 -96 243zM652 -481c-54 0 -100 19 -139 58s-59 85 -59 136c0 55 20 102 60 141c39 39 85 59 138 59
c55 0 102 -20 143 -61c40 -40 60 -86 60 -139c0 -55 -21 -101 -62 -138s-88 -56 -141 -56z" />
    <glyph glyph-name="Ygrave" unicode="&#x1ef2;" horiz-adv-x="1430" 
d="M518 0v510l-529 848h472l261 -515l265 515h454l-525 -848v-510h-398zM885 1473h-312l-287 334h432z" />
    <glyph glyph-name="ygrave" unicode="&#x1ef3;" horiz-adv-x="1153" 
d="M400 10l-402 950h398l181 -572l180 572h398l-428 -1078c-81 -205 -212 -302 -429 -302c-97 0 -178 18 -243 54l54 281c39 -19 78 -29 118 -29c84 0 144 31 173 124zM419 1121l-287 334h432l167 -334h-312z" />
    <glyph glyph-name="uni1EF8" unicode="&#x1ef8;" horiz-adv-x="1430" 
d="M518 510l-529 848h472l261 -515l265 515h454l-525 -848v-510h-398v510zM450 1465l-140 127c77 156 179 230 288 230c53 0 109 -23 144 -46s79 -46 112 -46c40 0 83 26 129 77l137 -117c-51 -104 -129 -177 -196 -205c-33 -15 -66 -22 -99 -22c-86 -3 -185 93 -250 89
c-40 0 -82 -29 -125 -87z" />
    <glyph glyph-name="uni1EF9" unicode="&#x1ef9;" horiz-adv-x="1153" 
d="M400 10l-402 950h398l181 -572l180 572h398l-428 -1078c-81 -205 -212 -302 -429 -302c-97 0 -178 18 -243 54l54 281c39 -19 78 -29 118 -29c84 0 144 31 173 124zM312 1105l-140 127c77 156 179 230 288 230c53 0 109 -23 144 -46s79 -46 112 -46c40 0 83 26 129 77
l137 -117c-51 -104 -129 -177 -196 -205c-33 -15 -66 -22 -99 -22c-86 -3 -185 93 -250 89c-40 0 -82 -29 -125 -87z" />
    <glyph glyph-name="uni2000" unicode="&#x2000;" horiz-adv-x="1148" 
 />
    <glyph glyph-name="uni2001" unicode="&#x2001;" horiz-adv-x="2296" 
 />
    <glyph glyph-name="uni2002" unicode="&#x2002;" horiz-adv-x="1148" 
 />
    <glyph glyph-name="uni2003" unicode="&#x2003;" horiz-adv-x="2296" 
 />
    <glyph glyph-name="uni2004" unicode="&#x2004;" horiz-adv-x="765" 
 />
    <glyph glyph-name="uni2005" unicode="&#x2005;" horiz-adv-x="574" 
 />
    <glyph glyph-name="uni2006" unicode="&#x2006;" horiz-adv-x="382" 
 />
    <glyph glyph-name="uni2007" unicode="&#x2007;" horiz-adv-x="382" 
 />
    <glyph glyph-name="uni2008" unicode="&#x2008;" horiz-adv-x="287" 
 />
    <glyph glyph-name="uni2009" unicode="&#x2009;" horiz-adv-x="459" 
 />
    <glyph glyph-name="uni200A" unicode="&#x200a;" horiz-adv-x="127" 
 />
    <glyph glyph-name="uni2010" unicode="&#x2010;" horiz-adv-x="965" 
d="M100 668h765v-274h-765v274z" />
    <glyph glyph-name="uni2011" unicode="&#x2011;" horiz-adv-x="965" 
d="M100 668h765v-274h-765v274z" />
    <glyph glyph-name="figuredash" unicode="&#x2012;" horiz-adv-x="965" 
d="M100 668h765v-274h-765v274z" />
    <glyph glyph-name="endash" unicode="&#x2013;" horiz-adv-x="1243" 
d="M100 668h1043v-274h-1043v274z" />
    <glyph glyph-name="emdash" unicode="&#x2014;" horiz-adv-x="2258" 
d="M100 668h2058v-274h-2058v274z" />
    <glyph glyph-name="quoteleft" unicode="&#x2018;" horiz-adv-x="571" 
d="M539 1428l-137 -516h-352l198 516h291z" />
    <glyph glyph-name="quoteright" unicode="&#x2019;" horiz-adv-x="563" 
d="M58 912l137 516h352l-198 -516h-291z" />
    <glyph glyph-name="quotesinglbase" unicode="&#x201a;" horiz-adv-x="557" 
d="M-11 -284l137 516h352l-198 -516h-291z" />
    <glyph glyph-name="quotedblleft" unicode="&#x201c;" horiz-adv-x="1021" 
d="M852 912h-352l198 516h291zM539 1428l-137 -516h-352l198 516h291z" />
    <glyph glyph-name="quotedblright" unicode="&#x201d;" horiz-adv-x="1013" 
d="M799 912h-291l137 516h352zM349 912h-291l137 516h352z" />
    <glyph glyph-name="quotedblbase" unicode="&#x201e;" horiz-adv-x="1012" 
d="M730 -284h-291l137 516h352zM280 -284h-291l137 516h352z" />
    <glyph glyph-name="dagger" unicode="&#x2020;" horiz-adv-x="822" 
d="M42 1126v250h223v232h291v-232h225v-250h-225v-619h-291v619h-223z" />
    <glyph glyph-name="daggerdbl" unicode="&#x2021;" horiz-adv-x="893" 
d="M300 1194h-223v251h223v193h291v-193h225v-251h-225v-275h225v-251h-225v-191h-291v191h-223v251h223v275z" />
    <glyph glyph-name="bullet" unicode="&#x2022;" horiz-adv-x="852" 
d="M99 662c0 91 31 167 94 229c63 61 140 92 232 92c93 0 171 -31 234 -92c63 -62 95 -138 95 -229c0 -90 -32 -166 -95 -228s-141 -93 -234 -93c-92 0 -169 31 -232 93s-94 138 -94 228z" />
    <glyph glyph-name="ellipsis" unicode="&#x2026;" horiz-adv-x="1588" 
d="M1175 37c-39 37 -58 84 -58 139s19 102 58 140c38 38 85 57 142 57s104 -19 143 -57s58 -85 58 -140s-19 -102 -58 -139c-39 -38 -86 -57 -143 -57s-104 19 -142 57zM935 37c-39 -38 -86 -57 -143 -57s-104 19 -142 57c-39 37 -58 84 -58 139s19 102 58 140
c38 38 85 57 142 57s104 -19 143 -57s58 -85 58 -140s-19 -102 -58 -139zM128 37c-39 37 -58 84 -58 139s19 102 58 140c38 38 85 57 142 57s104 -19 143 -57s58 -85 58 -140s-19 -102 -58 -139c-39 -38 -86 -57 -143 -57s-104 19 -142 57z" />
    <glyph glyph-name="uni202F" unicode="&#x202f;" horiz-adv-x="459" 
 />
    <glyph glyph-name="perthousand" unicode="&#x2030;" horiz-adv-x="2587" 
d="M33 1000c0 109 35 200 105 271s160 106 271 106s202 -35 273 -106s106 -162 106 -271c0 -107 -35 -195 -106 -264c-71 -70 -162 -105 -273 -105s-201 35 -271 104s-105 158 -105 265zM1630 85c-71 -70 -162 -105 -273 -105s-201 35 -271 104s-105 158 -105 265
c0 109 35 200 105 271s160 106 271 106s202 -35 273 -106s106 -162 106 -271c0 -107 -35 -195 -106 -264zM2445 85c-71 -70 -162 -105 -273 -105s-201 35 -271 104s-105 158 -105 265c0 109 35 200 105 271s160 106 271 106s202 -35 273 -106s106 -162 106 -271
c0 -107 -35 -195 -106 -264zM1364 1334l-732 -1334h-227v26l734 1332h225v-24zM2171 473c-67 0 -113 -51 -113 -123c0 -71 46 -122 113 -122c68 0 116 51 116 122c0 72 -48 123 -116 123zM1243 350c0 -71 46 -122 113 -122c68 0 116 51 116 122c0 72 -48 123 -116 123
c-67 0 -113 -51 -113 -123zM408 1124c-67 0 -113 -51 -113 -123c0 -71 46 -122 113 -122c68 0 116 51 116 122c0 72 -48 123 -116 123z" />
    <glyph glyph-name="guilsinglleft" unicode="&#x2039;" horiz-adv-x="739" 
d="M674 84h-335l-272 395l272 394h335l-254 -394z" />
    <glyph glyph-name="guilsinglright" unicode="&#x203a;" horiz-adv-x="739" 
d="M672 478l-272 -394h-335l254 394l-254 395h335z" />
    <glyph glyph-name="fraction" unicode="&#x2044;" horiz-adv-x="388" 
d="M-56 0h-227v26l734 1332h225v-24z" />
    <glyph glyph-name="uni205F" unicode="&#x205f;" horiz-adv-x="574" 
 />
    <glyph glyph-name="uni2070" unicode="&#x2070;" horiz-adv-x="822" 
d="M80 947c0 236 111 431 361 431c247 0 360 -195 359 -431c0 -167 -47 -296 -157 -374c-55 -39 -123 -59 -202 -59c-160 0 -273 85 -323 213c-25 63 -38 137 -38 220zM441 1179c-41 0 -71 -23 -90 -68s-29 -100 -29 -164c0 -67 10 -123 30 -167c19 -45 49 -67 89 -67
c39 0 69 22 88 67s29 100 29 167c1 116 -33 230 -117 232z" />
    <glyph glyph-name="uni2074" unicode="&#x2074;" horiz-adv-x="756" 
d="M396 724h-370v142l343 492h255v-453h111v-181h-111v-190h-228v190zM396 905v204l-142 -204h142z" />
    <glyph glyph-name="uni2075" unicode="&#x2075;" horiz-adv-x="701" 
d="M340 515c-88 0 -166 28 -210 64c-44 35 -76 73 -88 97l-9 19l175 99c0 -1 14 -28 44 -52c16 -14 47 -28 76 -28c51 0 94 37 94 90c0 56 -43 98 -100 98c-39 0 -71 -16 -94 -49l-169 64l46 441h510v-198h-314l-11 -108c23 19 55 28 97 28c83 0 149 -25 200 -76
s76 -118 76 -201c0 -86 -30 -155 -89 -208s-137 -80 -234 -80z" />
    <glyph glyph-name="uni2076" unicode="&#x2076;" horiz-adv-x="781" 
d="M432 514c-109 0 -195 35 -258 106s-95 167 -95 289c0 301 136 469 401 469c61 0 124 -12 162 -27s69 -31 82 -42l11 -8l-78 -180c-45 34 -97 51 -158 51c-47 0 -88 -14 -123 -41c-35 -28 -53 -65 -52 -111c25 40 91 71 163 71c79 0 145 -26 198 -78
c53 -53 79 -118 79 -197c0 -93 -30 -166 -90 -220c-60 -55 -141 -82 -242 -82zM323 811c0 -63 44 -104 103 -104c63 0 105 41 105 104s-44 107 -105 107c-57 0 -103 -47 -103 -107z" />
    <glyph glyph-name="uni2077" unicode="&#x2077;" horiz-adv-x="659" 
d="M63 1160v198h619v-158c-143 -223 -248 -445 -317 -666h-253c77 219 182 428 315 626h-364z" />
    <glyph glyph-name="uni2078" unicode="&#x2078;" horiz-adv-x="765" 
d="M402 514c-77 0 -152 18 -219 56s-111 109 -111 198c0 95 56 165 137 204c-83 35 -124 91 -124 168c0 83 40 149 104 185c63 36 136 53 213 53c147 0 317 -66 317 -238c0 -77 -42 -133 -125 -168c83 -39 142 -109 142 -204c0 -91 -45 -162 -113 -199s-142 -55 -221 -55z
M312 786c0 -53 40 -87 89 -87c51 0 90 34 90 87c0 48 -42 83 -90 83s-89 -35 -89 -83zM401 1188c-40 0 -72 -30 -72 -66c0 -41 28 -75 72 -75c43 0 73 34 73 75c0 36 -32 66 -73 66z" />
    <glyph glyph-name="uni2079" unicode="&#x2079;" horiz-adv-x="780" 
d="M345 801c-79 0 -144 26 -197 79c-53 52 -80 117 -80 196c0 93 30 166 90 221c60 54 141 81 242 81c109 0 196 -35 259 -106s94 -167 94 -289c0 -301 -136 -469 -401 -469c-61 0 -123 12 -161 27s-70 31 -83 42l-11 8l78 180c45 -34 97 -51 158 -51c47 0 88 14 123 42
c35 27 53 64 52 110c-25 -40 -91 -71 -163 -71zM406 1185c-63 0 -105 -41 -105 -104s44 -107 105 -107c57 0 103 47 103 107c0 63 -44 104 -103 104z" />
    <glyph glyph-name="uni2080" unicode="&#x2080;" horiz-adv-x="822" 
d="M51 413c0 236 111 431 361 431c247 0 360 -195 359 -431c0 -167 -47 -296 -157 -374c-55 -40 -123 -59 -202 -59c-160 0 -273 85 -323 213c-25 63 -38 137 -38 220zM412 645c-41 0 -71 -23 -90 -68s-29 -100 -29 -164c0 -67 10 -123 30 -167c19 -45 49 -67 89 -67
c39 0 69 22 88 67s29 100 29 167c1 116 -33 230 -117 232z" />
    <glyph glyph-name="uni2081" unicode="&#x2081;" horiz-adv-x="526" 
d="M429 0h-234v625h-186v199h420v-824z" />
    <glyph glyph-name="uni2082" unicode="&#x2082;" horiz-adv-x="725" 
d="M223 528l-184 113c21 59 62 108 121 146s125 57 196 57c94 0 170 -24 227 -73s86 -114 86 -194c0 -56 -23 -114 -51 -154c-14 -21 -33 -43 -56 -66c-51 -50 -72 -65 -130 -110c-27 -21 -47 -37 -60 -48h303v-199h-607v85c0 107 71 190 186 282c71 57 116 95 135 116
c26 29 39 55 39 79c0 45 -38 72 -81 72c-52 0 -99 -38 -124 -106z" />
    <glyph glyph-name="uni2083" unicode="&#x2083;" horiz-adv-x="727" 
d="M342 -20c-67 0 -129 17 -186 52s-97 78 -118 131l161 112c3 -5 6 -10 23 -32c9 -11 18 -21 28 -29c20 -17 55 -33 88 -33c52 0 91 33 91 77c0 47 -30 78 -75 78h-120v160h120c37 0 70 36 70 75c0 41 -36 74 -83 74c-60 0 -106 -33 -138 -100l-161 110
c24 55 65 101 123 136s120 53 187 53c95 0 171 -23 230 -70c58 -47 87 -108 87 -184s-50 -145 -125 -172c79 -25 131 -103 131 -186c0 -75 -31 -136 -92 -182c-61 -47 -142 -70 -241 -70z" />
    <glyph glyph-name="uni2084" unicode="&#x2084;" horiz-adv-x="758" 
d="M389 190h-370v142l343 492h255v-453h111v-181h-111v-190h-228v190zM389 371v204l-142 -204h142z" />
    <glyph glyph-name="uni2085" unicode="&#x2085;" horiz-adv-x="701" 
d="M335 -19c-88 0 -166 28 -210 64c-44 35 -76 73 -88 97l-9 19l175 99c0 -1 14 -28 44 -52c16 -14 47 -28 76 -28c51 0 94 37 94 90c0 56 -43 98 -100 98c-39 0 -71 -16 -94 -49l-169 64l46 441h510v-198h-314l-11 -108c23 19 55 28 97 28c83 0 149 -25 200 -76
s76 -118 76 -201c0 -86 -30 -155 -89 -208s-137 -80 -234 -80z" />
    <glyph glyph-name="uni2086" unicode="&#x2086;" horiz-adv-x="782" 
d="M405 -20c-109 0 -195 35 -258 106s-95 167 -95 289c0 301 136 469 401 469c61 0 124 -12 162 -27s68 -31 83 -42l10 -8l-78 -180c-45 34 -97 51 -158 51c-47 0 -88 -14 -123 -41c-35 -28 -53 -65 -52 -111c25 40 91 71 163 71c79 0 145 -26 198 -78
c53 -53 79 -118 79 -197c0 -93 -30 -166 -90 -220c-60 -55 -141 -82 -242 -82zM296 277c0 -63 44 -104 103 -104c63 0 105 41 105 104s-44 107 -105 107c-57 0 -103 -47 -103 -107z" />
    <glyph glyph-name="uni2087" unicode="&#x2087;" horiz-adv-x="660" 
d="M27 626v198h619v-158c-143 -223 -248 -445 -317 -666h-253c77 219 182 428 315 626h-364z" />
    <glyph glyph-name="uni2088" unicode="&#x2088;" horiz-adv-x="766" 
d="M381 -20c-77 0 -152 17 -219 56c-67 38 -111 109 -111 198c0 95 56 165 137 204c-83 35 -124 91 -124 168c0 83 40 149 104 185c63 36 136 53 213 53c147 0 317 -66 317 -238c0 -77 -42 -133 -125 -168c83 -39 142 -109 142 -204c0 -91 -45 -162 -113 -199
s-142 -55 -221 -55zM291 252c0 -53 40 -87 89 -87c51 0 90 34 90 87c0 48 -42 83 -90 83s-89 -35 -89 -83zM380 654c-40 0 -72 -30 -72 -66c0 -41 28 -75 72 -75c43 0 73 34 73 75c0 36 -32 66 -73 66z" />
    <glyph glyph-name="uni2089" unicode="&#x2089;" horiz-adv-x="782" 
d="M346 267c-79 0 -144 26 -197 79c-53 52 -80 117 -80 196c0 93 30 166 90 221c60 54 141 81 242 81c109 0 196 -35 259 -106s94 -167 94 -289c0 -301 -136 -469 -401 -469c-61 0 -123 12 -161 28c-38 15 -69 30 -84 41l-10 8l78 180c45 -34 97 -51 158 -51
c47 0 88 14 123 42c35 27 53 64 52 110c-25 -40 -91 -71 -163 -71zM407 651c-63 0 -105 -41 -105 -104s44 -107 105 -107c57 0 103 47 103 107c0 63 -44 104 -103 104z" />
    <glyph glyph-name="Euro" unicode="&#x20ac;" horiz-adv-x="1473" 
d="M235 497h-165v130h152c-1 9 -1 24 -1 43c0 15 1 36 2 64h-153v130h169c31 162 102 288 211 379c109 90 248 135 415 135c133 0 245 -29 338 -87s158 -137 195 -237l-347 -166c-36 107 -107 166 -199 166c-103 0 -171 -63 -204 -190h284v-130h-303c-1 -11 -1 -29 -1 -54
c0 -24 0 -42 1 -53h303v-130h-283c35 -127 107 -190 217 -190c52 0 97 19 136 56s67 82 86 135l324 -170c-87 -217 -275 -348 -547 -348c-172 0 -313 45 -422 136c-109 90 -179 217 -208 381z" />
    <glyph glyph-name="trademark" unicode="&#x2122;" horiz-adv-x="1335" 
d="M681 818h-85v590h99l210 -433l209 433h99v-590h-85v431l-193 -389h-61l-193 388v-430zM231 818v510h-197v80h479v-80h-197v-510h-85z" />
    <glyph glyph-name="estimated" unicode="&#x212e;" horiz-adv-x="1673" 
d="M859 -20c-144 0 -275 31 -394 93s-213 146 -280 253c-68 107 -102 224 -102 351s35 245 104 353c69 107 164 192 283 255c119 62 248 93 389 93c105 0 205 -19 301 -57s179 -89 248 -152c69 -64 124 -140 165 -227s61 -179 61 -274v-23h-1257c-7 0 -11 -3 -11 -9v-359
c0 -16 6 -32 17 -47c123 -118 283 -177 478 -177c200 0 379 71 499 199h113c-70 -83 -158 -149 -265 -198s-223 -74 -349 -74zM366 1077v-351c0 -9 4 -13 11 -13h966c4 0 6 4 6 13v358c0 15 -6 31 -17 46c-116 113 -288 175 -471 175c-195 0 -354 -58 -475 -175
c-13 -16 -20 -34 -20 -53z" />
    <glyph glyph-name="onethird" unicode="&#x2153;" horiz-adv-x="1681" 
d="M1317 -20c-67 0 -129 17 -186 52s-97 78 -118 131l161 112c3 -5 6 -10 23 -32c9 -11 18 -21 28 -29c20 -17 55 -33 88 -33c52 0 91 33 91 77c0 47 -30 78 -75 78h-120v160h120c37 0 70 36 70 75c0 41 -36 74 -83 74c-60 0 -106 -33 -138 -100l-161 110
c24 55 65 101 123 136s120 53 187 53c95 0 171 -23 230 -70c58 -47 87 -108 87 -184s-50 -145 -125 -172c79 -25 131 -103 131 -186c0 -75 -31 -136 -92 -182c-61 -47 -142 -70 -241 -70zM334 0v26l734 1332h225v-24l-732 -1334h-227zM74 1155v199h420v-824h-234v625h-186z
" />
    <glyph glyph-name="twothirds" unicode="&#x2154;" horiz-adv-x="1909" 
d="M275 1068l-184 113c21 59 62 108 121 146s125 57 196 57c94 0 170 -24 227 -73s86 -114 86 -194c0 -56 -23 -114 -51 -154c-14 -21 -33 -43 -56 -66c-51 -50 -72 -65 -130 -110c-27 -21 -47 -37 -60 -48h303v-199h-607v85c0 107 71 190 186 282c71 57 116 95 135 116
c26 29 39 55 39 79c0 45 -38 72 -81 72c-52 0 -99 -38 -124 -106zM1559 -20c-67 0 -129 17 -186 52s-97 78 -118 131l161 112c3 -5 6 -10 23 -32c9 -11 18 -21 28 -29c20 -17 55 -33 88 -33c52 0 91 33 91 77c0 47 -30 78 -75 78h-120v160h120c37 0 70 36 70 75
c0 41 -36 74 -83 74c-60 0 -106 -33 -138 -100l-161 110c24 55 65 101 123 136s120 53 187 53c95 0 171 -23 230 -70c58 -47 87 -108 87 -184s-50 -145 -125 -172c79 -25 131 -103 131 -186c0 -75 -31 -136 -92 -182c-61 -47 -142 -70 -241 -70zM564 0v26l734 1332h225v-24
l-732 -1334h-227z" />
    <glyph glyph-name="minus" unicode="&#x2212;" horiz-adv-x="1173" 
d="M1086 840v-326h-999v326h999z" />
    <glyph glyph-name="uni2215" unicode="&#x2215;" horiz-adv-x="859" 
d="M180 0h-227v26l734 1332h225v-24z" />
    <glyph glyph-name="uni2219" unicode="&#x2219;" horiz-adv-x="611" 
d="M163 399c-39 37 -58 84 -58 139s19 102 58 140c38 38 85 57 142 57s104 -19 143 -57s58 -85 58 -140s-19 -102 -58 -139c-39 -38 -86 -57 -143 -57s-104 19 -142 57z" />
    <glyph glyph-name="approxequal" unicode="&#x2248;" horiz-adv-x="1457" 
d="M259 203l-155 251c47 72 107 128 179 168s148 60 228 60c92 0 185 -30 241 -61c55 -31 129 -61 186 -61c54 0 101 8 140 23s80 42 124 81l170 -231c-51 -64 -113 -117 -186 -159c-73 -43 -151 -64 -236 -64c-103 0 -182 48 -254 86c-50 26 -116 46 -183 46
c-91 0 -176 -46 -254 -139zM250 709l-165 241c129 139 271 208 425 208c96 0 191 -30 244 -61s125 -61 185 -61c75 0 149 35 222 106l156 -239c-63 -75 -124 -129 -181 -160s-119 -47 -184 -47c-77 0 -165 33 -223 66s-143 66 -215 66c-37 0 -74 -7 -110 -21
s-64 -28 -84 -42c-20 -15 -43 -33 -70 -56z" />
    <glyph glyph-name="notequal" unicode="&#x2260;" horiz-adv-x="1293" 
d="M104 307v287h385l77 172h-462v286h590l192 429l179 -74l-160 -355h284v-286h-413l-77 -172h490v-287h-620l-187 -417l-172 79l151 338h-257z" />
    <glyph glyph-name="lessequal" unicode="&#x2264;" horiz-adv-x="1368" 
d="M587 768h639v-319h-1118v434l1093 526v-398zM96 274h1145v-312h-1145v312z" />
    <glyph glyph-name="greaterequal" unicode="&#x2265;" horiz-adv-x="1371" 
d="M1261 449h-1118v319h639l-614 243v398l1093 -526v-434zM1273 -38h-1145v312h1145v-312z" />
    <glyph glyph-name="uni25FC" unicode="&#x25fc;" horiz-adv-x="960" 
d="M0 0v960h960v-960h-960z" />
    <glyph glyph-name="foundryicon" horiz-adv-x="2383" 
d="M1715 655v-102h-81v349h66l8 -24l7 7c15 15 35 22 60 22c64 0 103 -50 103 -129c0 -80 -48 -133 -121 -133c-16 0 -30 3 -42 10zM717 655v-102h-82v349h65l9 -24l8 7c13 15 32 22 58 22c65 0 103 -50 103 -129c0 -80 -46 -133 -121 -133c-15 0 -29 3 -40 10zM915 773
c0 81 48 134 128 134c81 0 128 -50 128 -129c0 -81 -50 -133 -131 -133c-77 0 -125 51 -125 128zM1427 665l-89 237h89l51 -173h3l41 173h88l-80 -257c-25 -73 -62 -102 -126 -102c-21 0 -41 4 -60 13l9 59c20 -4 35 -6 46 -6c21 0 33 10 37 29zM2041 645
c-79 0 -128 51 -128 128c0 81 49 134 128 134c63 0 101 -39 101 -95c0 -22 -3 -39 -8 -52h-139c3 -33 21 -49 55 -49c24 0 47 4 69 13l17 -58c-26 -14 -58 -21 -95 -21zM344 951h-103v71h295v-71h-112v-302h-80v302zM1119 951v71h283v-71h-101v-302h-81v302h-101zM571 649
h-81v253h81v-253zM1042 849c-30 0 -45 -24 -45 -71c0 -50 15 -75 46 -75c30 0 45 24 45 72c0 49 -15 74 -46 74zM1905 314c-31 0 -54 25 -54 62c-5 55 63 82 94 45c32 -36 11 -112 -40 -107zM1193 314c-32 0 -54 25 -54 62c0 36 23 62 55 62c31 0 54 -26 54 -62
s-22 -62 -55 -62zM1748 844c-13 0 -24 -4 -33 -12v-117c11 -6 22 -9 33 -9c29 0 46 28 46 69c0 46 -15 69 -46 69zM717 832v-117c6 -6 16 -9 30 -9c32 0 48 23 48 69s-15 69 -46 69c-13 0 -24 -4 -32 -12zM1874 417c-27 -31 -9 -102 32 -96c25 0 44 20 44 53
c0 35 -18 57 -45 57c-13 0 -23 -5 -31 -14zM1193 431c-25 0 -44 -21 -44 -54s18 -56 45 -56c25 0 44 20 44 53c0 35 -18 57 -45 57zM1047 316h-9v120h34c26 0 39 -12 39 -35c0 -21 -16 -35 -40 -35h-24v-50zM1507 366v-50h-9v120h34c26 0 39 -12 39 -35s-14 -35 -41 -35h-23
zM324 316h-10l-39 120h9l35 -110l35 105h9l35 -105l35 110h10l-40 -120h-10l-34 104zM2008 316h-8v120h14l45 -93l45 93h14v-120h-9v111l-46 -94h-8l-47 94v-111zM505 316l-39 120h9l35 -110l35 105h9l36 -105l34 110h10l-40 -120h-9l-35 104l-35 -104h-10zM706 316h-10
l-39 120h9l35 -110l35 105h9l36 -105l35 110h9l-40 -120h-9l-35 104zM1995 803h70c5 27 -6 46 -30 46c-23 0 -37 -15 -40 -46zM1507 430v-58h25c20 0 30 9 30 28c0 20 -11 30 -32 30h-23zM1071 430h-24v-58h25c20 0 30 9 30 28c0 20 -10 30 -31 30zM1796 314
c-37 0 -61 25 -61 62c0 36 23 62 58 62c10 0 19 -2 27 -7l-1 -24h-6l-1 21c-8 2 -14 3 -19 3c-29 0 -48 -19 -48 -54c0 -37 18 -56 53 -56c8 0 15 1 22 4l3 -6c-8 -3 -17 -5 -27 -5zM1674 316h-67v120h65v-6h-57v-50h55v-7h-55v-51h59v-6zM1414 316v47l-42 73h10l37 -66
l37 66h9l-42 -73v-47h-9zM1307 316v114h-37v6h83v-6h-37v-114h-9zM865 430v6h84v-6h-38v-114h-8v114h-38zM991 436v-120h-9v120h9zM1707 314c-9 0 -9 14 0 14s9 -14 0 -14zM849 314c-9 0 -9 14 0 14s9 -14 0 -14z" />
    <glyph glyph-name="IJacute" horiz-adv-x="1727" 
d="M597 232l251 239c57 -95 128 -142 213 -142c84 0 139 64 139 160v869h399v-902c0 -145 -47 -260 -140 -346c-93 -87 -220 -130 -381 -130c-211 0 -372 84 -481 252zM549 1358v-1358h-399v1358h399zM1546 1473h-312l167 334h432zM789 1807l-287 -334h-312l167 334h432z
" />
    <glyph glyph-name="i.TRK" horiz-adv-x="636" 
d="M510 960v-960h-384v960h384zM106 1329c0 63 19 115 58 154s89 59 152 59s115 -20 154 -59s59 -91 59 -154s-20 -113 -59 -152s-91 -58 -154 -58s-113 19 -152 58s-58 89 -58 152z" />
    <glyph glyph-name="ijacute" horiz-adv-x="1179" 
d="M420 -373l32 288c36 -15 76 -23 119 -23c69 0 109 42 109 127v941h373v-978c0 -170 -80 -282 -179 -343c-69 -42 -141 -59 -213 -59c-98 0 -178 16 -241 47zM510 960v-960h-384v960h384zM1022 1113h-312l167 334h432zM763 1447l-287 -334h-312l167 334h432z" />
    <glyph glyph-name="zero.slash" horiz-adv-x="1274" 
d="M948 1297l141 207l149 -97l-157 -232c97 -127 146 -295 146 -505c0 -197 -48 -363 -142 -489s-251 -201 -448 -201c-120 0 -224 26 -313 79l-139 -205l-149 97l154 228c-96 123 -144 286 -144 491c0 197 48 367 141 499c93 131 251 210 450 210c120 0 224 -27 311 -82z
M450 561l297 439c-30 35 -67 52 -110 52c-68 0 -121 -46 -151 -118c-30 -73 -44 -158 -44 -254c0 -45 3 -85 8 -119zM824 796l-297 -438c30 -34 67 -51 110 -51c88 0 150 81 175 190c13 54 19 115 19 183c0 42 -2 81 -7 116z" />
    <glyph glyph-name="Q.alt" horiz-adv-x="1560" 
d="M62 681c-6 405 307 703 721 697c205 0 389 -72 514 -194s201 -301 201 -504c0 -132 -29 -250 -86 -354c-58 -104 -138 -186 -240 -246l269 -242l-223 -239l-416 381h-19c-208 0 -391 74 -518 196s-203 301 -203 505zM785 1020c-95 0 -171 -31 -230 -94s-88 -145 -88 -246
c0 -103 29 -186 88 -249c59 -64 135 -96 230 -96c93 0 167 32 224 96c57 63 85 146 85 249c0 101 -28 183 -85 246s-132 94 -224 94z" />
    <glyph glyph-name="y.alt" horiz-adv-x="1227" 
d="M415 30l-416 930h418l204 -578l200 578h409l-570 -1363h-402z" />
    <glyph glyph-name="yacute.alt" horiz-adv-x="1227" 
d="M415 30l-416 930h418l204 -578l200 578h409l-570 -1363h-402zM1074 1447l-287 -334h-312l167 334h432z" />
    <glyph glyph-name="ycircumflex.alt" horiz-adv-x="1227" 
d="M415 30l-416 930h418l204 -578l200 578h409l-570 -1363h-402zM613 1245l-104 -160h-311l287 370h257l287 -370h-312z" />
    <glyph glyph-name="ydieresis.alt" horiz-adv-x="1227" 
d="M415 30l-416 930h418l204 -578l200 578h409l-570 -1363h-402zM808 1151c-97 0 -166 67 -166 166c0 100 69 168 166 168c100 0 169 -69 169 -168s-69 -166 -169 -166zM539 1197c-31 -31 -72 -46 -121 -46s-89 15 -120 46s-47 71 -47 120c0 100 68 168 167 168
c49 0 90 -16 121 -47s47 -72 47 -121s-16 -89 -47 -120z" />
    <glyph glyph-name="ygrave.alt" horiz-adv-x="1227" 
d="M258 -403l157 433l-416 930h418l204 -578l200 578h409l-570 -1363h-402zM800 1121h-312l-287 334h432z" />
    <glyph glyph-name="ymacron.alt" horiz-adv-x="1227" 
d="M415 30l-416 930h418l204 -578l200 578h409l-570 -1363h-402zM909 1120h-591v234h591v-234z" />
    <glyph glyph-name="ytilde.alt" horiz-adv-x="1227" 
d="M415 30l-416 930h418l204 -578l200 578h409l-570 -1363h-402zM349 1105l-140 127c77 156 179 230 288 230c53 0 109 -23 144 -46s79 -46 112 -46c40 0 83 26 129 77l137 -117c-51 -104 -129 -177 -196 -205c-33 -15 -66 -22 -99 -22c-86 -3 -185 93 -250 89
c-40 0 -82 -29 -125 -87z" />
    <glyph glyph-name="zero.slash.tnum" 
d="M1028 1297l140 207l169 -97l-166 -245c91 -126 136 -290 136 -492c0 -197 -48 -363 -142 -489s-251 -201 -448 -201c-114 0 -214 24 -299 72l-134 -198l-169 97l155 228c-96 121 -144 285 -144 491c0 197 48 367 141 499c93 131 251 210 450 210c119 0 223 -27 311 -82z
M529 562l298 438c-31 35 -67 52 -110 52c-68 0 -121 -46 -151 -118c-30 -73 -44 -158 -44 -254c0 -43 2 -83 7 -118zM906 772l-288 -426c28 -26 61 -39 99 -39c88 0 150 81 175 190c13 54 19 115 19 183c0 36 -2 67 -5 92z" />
    <glyph glyph-name="zero.tnum" 
d="M162 399c-24 82 -36 172 -36 271s12 190 36 274c47 168 137 304 291 379c77 37 165 56 264 56s187 -19 264 -56c153 -75 243 -211 291 -379c23 -84 35 -175 35 -274s-12 -189 -36 -271c-48 -165 -139 -295 -291 -366c-77 -35 -164 -53 -263 -53s-186 18 -263 53
c-153 71 -244 201 -292 366zM807 1020c-52 43 -128 43 -180 0c-26 -21 -46 -50 -61 -86c-30 -73 -44 -158 -44 -254c0 -195 56 -373 195 -373c88 0 150 81 175 190c13 54 19 115 19 183c-2 140 -27 274 -104 340z" />
    <glyph glyph-name="one.tnum" 
d="M1226 0h-979v327h308v701h-279v330h667v-1031h283v-327z" />
    <glyph glyph-name="two.tnum" 
d="M481 878l-293 131c27 88 84 174 169 248s215 122 358 122c155 0 281 -41 378 -124c96 -83 144 -193 144 -328c0 -65 -20 -130 -46 -182s-81 -114 -121 -154c-20 -20 -46 -43 -78 -69c-33 -27 -60 -48 -81 -63c-21 -16 -49 -36 -84 -61c-14 -10 -32 -24 -55 -42
c-23 -19 -35 -29 -37 -31h510v-325h-1010v142c0 52 5 97 22 139c16 42 27 70 62 110c17 19 33 36 46 50c13 13 32 31 59 52c26 21 48 39 66 53s44 34 79 61c24 17 39 29 63 48c75 57 127 104 156 141c29 36 44 76 44 121c0 80 -55 132 -142 132c-89 0 -169 -72 -209 -171z
" />
    <glyph glyph-name="three.tnum" 
d="M712 -19c-133 0 -256 42 -343 107c-88 65 -151 146 -184 231l284 152c55 -107 133 -160 232 -160c87 0 143 49 143 116c0 77 -59 128 -148 128h-197v260h207c34 0 64 12 90 36c26 23 39 51 39 82c0 76 -60 120 -133 120c-94 0 -168 -52 -223 -156l-272 137
c39 103 105 186 198 249s198 95 316 95c137 0 263 -36 360 -103c96 -68 157 -179 157 -314c0 -73 -28 -139 -69 -181s-86 -70 -131 -85c54 -19 102 -54 145 -106c43 -53 64 -117 64 -192c0 -124 -49 -224 -148 -301s-228 -115 -387 -115z" />
    <glyph glyph-name="four.tnum" 
d="M743 0v317h-597v237l551 804h426v-739h184v-302h-184v-317h-380zM743 955l-203 -336h203v336z" />
    <glyph glyph-name="five.tnum" 
d="M706 -19c-241 0 -412 111 -511 332l297 156c51 -106 121 -159 209 -159c44 0 81 15 111 46c30 30 45 67 45 112c0 88 -65 153 -162 153c-76 0 -139 -45 -171 -98l-272 119l77 716h849v-326h-523l-18 -172c43 27 103 41 181 41c125 0 230 -41 314 -123s126 -188 126 -317
c0 -143 -51 -259 -152 -347c-102 -89 -235 -133 -400 -133z" />
    <glyph glyph-name="six.tnum" 
d="M749 -20c-239 0 -404 103 -491 259c-61 105 -89 228 -89 364c0 505 243 775 688 775c77 0 144 -7 202 -21c57 -15 115 -37 172 -67l-89 -291c-89 48 -182 72 -278 72c-154 3 -293 -81 -317 -273c45 69 150 121 289 121c141 0 255 -40 340 -119s128 -185 128 -317
c0 -152 -50 -274 -151 -365c-101 -92 -236 -138 -404 -138zM873 588c-34 31 -77 47 -130 47s-96 -16 -130 -47c-34 -32 -51 -73 -51 -122s17 -90 51 -121s77 -47 130 -47s96 16 130 47s51 72 51 121s-17 90 -51 122z" />
    <glyph glyph-name="seven.tnum" 
d="M240 1032v326h1011v-263c-223 -355 -392 -720 -508 -1095h-419c149 419 317 763 502 1032h-586z" />
    <glyph glyph-name="eight.tnum" 
d="M1109 94c-101 -76 -231 -114 -392 -114s-291 38 -392 114c-101 75 -151 173 -151 294c0 79 22 147 65 203c43 55 96 96 159 123c-57 19 -104 53 -143 101s-58 106 -58 173c0 117 48 211 144 283c95 71 221 107 376 107s280 -36 374 -107c94 -72 141 -166 141 -283
c0 -67 -19 -124 -58 -172c-39 -49 -88 -83 -146 -102c65 -26 119 -67 164 -123s67 -124 67 -203c0 -121 -50 -219 -150 -294zM563 412c0 -41 15 -73 45 -98s66 -37 109 -37s79 12 109 37s45 57 45 98c0 43 -15 77 -45 102s-66 37 -109 37s-79 -12 -109 -37s-45 -59 -45 -102
zM592 964c0 -67 46 -123 125 -123c116 -5 163 142 91 206c-23 22 -54 33 -91 33s-67 -11 -90 -33c-23 -23 -35 -50 -35 -83z" />
    <glyph glyph-name="nine.tnum" 
d="M545 441c-141 0 -255 40 -340 119s-128 185 -128 317c0 152 51 274 152 366c101 91 235 137 403 137c239 0 404 -103 491 -259c61 -105 89 -228 89 -364c0 -505 -243 -775 -688 -775c-77 0 -144 7 -201 22c-58 14 -116 36 -173 66l89 291c89 -48 182 -72 278 -72
c154 -4 293 81 317 273c-45 -69 -150 -121 -289 -121zM768 1015c-34 31 -77 47 -130 47s-96 -16 -130 -47s-51 -72 -51 -121s17 -90 51 -121c34 -32 77 -48 130 -48s96 16 130 48c34 31 51 72 51 121s-17 90 -51 121z" />
    <glyph glyph-name="plus.tnum" 
d="M137 521v326h387v362h380v-362h391v-326h-391v-370h-380v370h-387z" />
    <glyph glyph-name="minus.tnum" 
d="M1215 840v-326h-999v326h999z" />
    <glyph glyph-name="plusminus.tnum" 
d="M526 431v307h-366v326h366v295h381v-295h365v-326h-365v-307h-381zM1268 291v-313h-1100v313h1100z" />
    <glyph glyph-name="equal.tnum" 
d="M1266 625v-330h-1101v330h1101zM165 736v329h1101v-329h-1101z" />
    <glyph glyph-name="notequal.tnum" 
d="M173 307v287h385l77 172h-462v286h590l192 429l179 -74l-160 -355h284v-286h-413l-77 -172h490v-287h-620l-187 -417l-172 79l151 338h-257z" />
    <glyph glyph-name="approxequal.tnum" 
d="M246 203l-155 251c47 72 107 128 179 168s148 60 228 60c92 0 185 -30 241 -61c55 -31 129 -61 186 -61c54 0 101 8 140 23s80 42 124 81l170 -231c-51 -64 -113 -117 -186 -159c-73 -43 -151 -64 -236 -64c-103 0 -182 48 -254 86c-50 26 -116 46 -183 46
c-91 0 -176 -46 -254 -139zM237 709l-165 241c129 139 271 208 425 208c96 0 191 -30 244 -61s125 -61 185 -61c75 0 149 35 222 106l156 -239c-63 -75 -124 -129 -181 -160s-119 -47 -184 -47c-77 0 -165 33 -223 66s-143 66 -215 66c-37 0 -74 -7 -110 -21
s-64 -28 -84 -42c-20 -15 -43 -33 -70 -56z" />
    <glyph glyph-name="multiply.tnum" 
d="M161 371l314 312c-33 33 -86 86 -159 158s-125 123 -156 154l245 246l310 -306l310 306l246 -246l-317 -312l318 -312l-247 -245l-310 306l-310 -306z" />
    <glyph glyph-name="less.tnum" 
d="M1259 420v-370l-1086 492v277l1086 488v-371l-597 -255c40 -17 131 -57 272 -118s249 -109 325 -143z" />
    <glyph glyph-name="greater.tnum" 
d="M1259 542l-1086 -492v370c76 33 185 81 326 143c141 61 231 101 271 118l-597 255v371l1086 -488v-277z" />
    <glyph glyph-name="lessequal.tnum" 
d="M634 768h639v-319h-1118v434l1093 526v-398zM143 274h1145v-312h-1145v312z" />
    <glyph glyph-name="greaterequal.tnum" 
d="M1276 449h-1118v319h639l-614 243v398l1093 -526v-434zM1288 -38h-1145v312h1145v-312z" />
    <glyph glyph-name="divide.tnum" 
d="M1269 821v-283h-1107v283h1107zM574 121c-39 37 -58 84 -58 139s19 102 58 140c38 38 85 57 142 57s104 -19 143 -57s58 -85 58 -140s-19 -102 -58 -139c-39 -38 -86 -57 -143 -57s-104 19 -142 57zM859 960c-39 -38 -86 -57 -143 -57s-104 19 -142 57
c-39 37 -58 84 -58 139s19 102 58 140c38 38 85 57 142 57s104 -19 143 -57s58 -85 58 -140s-19 -102 -58 -139z" />
    <glyph glyph-name="logicalnot.tnum" 
d="M1284 342h-386v332h-750v326h1136v-658z" />
    <glyph glyph-name="numbersign.tnum" 
d="M241 289h-208l48 273h210l46 249h-211l51 272h211l49 275h304l-46 -275h192l49 275h305l-48 -275h206l-48 -272h-210l-46 -249h210l-50 -273h-208l-51 -289h-306l51 289h-194l-50 -289h-306zM837 811h-195l-47 -249h195z" />
    <glyph glyph-name="dollar.tnum" 
d="M146 294l285 199c61 -90 137 -147 228 -172v211c-39 12 -71 22 -97 31s-57 21 -92 36c-72 30 -111 54 -162 99c-74 63 -109 145 -113 265c0 77 22 146 65 207s100 109 170 144c69 35 146 55 229 62v160h131v-162c191 -19 344 -117 458 -294l-271 -188
c-41 69 -108 123 -187 146v-204c128 -37 212 -67 300 -117c44 -25 80 -52 107 -81c55 -58 90 -139 90 -238c0 -158 -92 -271 -217 -339c-85 -47 -180 -71 -280 -78v-157h-131v160c-225 21 -405 133 -513 310zM870 345c41 31 40 78 6 106c-17 13 -46 27 -86 40v-178
c33 5 59 16 80 32zM659 877v166c-47 -12 -78 -39 -78 -79c0 -33 26 -62 78 -87z" />
    <glyph glyph-name="Euro.tnum" 
d="M268 497h-165v130h152c-1 9 -1 24 -1 43c0 15 1 36 2 64h-153v130h169c31 162 102 288 211 379c109 90 248 135 415 135c133 0 245 -29 338 -87s158 -137 195 -237l-347 -166c-36 107 -107 166 -199 166c-103 0 -171 -63 -204 -190h284v-130h-303c-1 -11 -1 -29 -1 -54
c0 -24 0 -42 1 -53h303v-130h-283c35 -127 107 -190 217 -190c52 0 97 19 136 56s67 82 86 135l324 -170c-87 -217 -275 -348 -547 -348c-172 0 -313 45 -422 136c-109 90 -179 217 -208 381z" />
    <glyph glyph-name="yen.tnum" 
d="M441 635l-451 723h472l261 -515l265 515h454l-448 -723h173v-130h-250v-107h250v-130h-250v-268h-398v268h-254v130h254v107h-254v130h176z" />
    <glyph glyph-name="sterling.tnum" 
d="M1251 318v-319h-1087v257c120 64 163 134 162 221l-1 131h-154v179h153l-1 107c-1 151 48 269 145 355s223 129 378 129c229 0 398 -110 482 -313l-274 -159c-47 105 -112 157 -194 157c-48 0 -87 -16 -117 -47c-31 -31 -46 -71 -46 -120v-109h297v-179h-297v-92
c0 -56 0 -83 -22 -133c-11 -25 -28 -47 -49 -65h625z" />
    <glyph glyph-name="currency.tnum" 
d="M317 887l-167 164l171 171l165 -165c71 41 148 62 229 62c83 0 161 -21 233 -62l163 165l171 -171l-165 -164c41 -69 61 -144 61 -225c0 -85 -22 -162 -66 -231l170 -170l-171 -171l-172 174c-71 -38 -145 -57 -224 -57c-78 0 -151 19 -220 57l-174 -174l-171 171
l170 170c-42 71 -63 148 -63 231c0 82 20 157 60 225zM555 662c0 -44 16 -81 47 -112s69 -46 113 -46c45 0 84 15 116 46s48 68 48 112c0 45 -16 83 -48 115c-32 31 -71 47 -116 47c-44 0 -82 -16 -113 -47c-31 -32 -47 -70 -47 -115z" />
    <glyph glyph-name="florin.tnum" 
d="M198 38l79 273c27 -17 62 -25 103 -25c105 0 164 40 176 121l28 194h-146l43 298h145l13 87c18 119 72 215 161 286s199 106 330 106c39 0 80 -5 124 -16s80 -23 107 -38l-87 -270c-34 21 -73 32 -116 32c-89 0 -155 -46 -166 -117l-11 -70h258l-43 -298h-243l-33 -226
c-18 -123 -70 -220 -156 -290c-87 -70 -197 -105 -330 -105c-41 0 -83 6 -128 18s-81 25 -108 40z" />
    <glyph glyph-name="cent.tnum" 
d="M227 678c0 133 43 245 128 337s195 145 332 159v167h131v-167c173 -17 310 -103 383 -246l-278 -190c-25 55 -60 91 -105 107v-339c46 15 84 49 114 102l274 -192c-73 -132 -212 -218 -388 -235v-181h-131v181c-136 15 -247 68 -332 161c-85 92 -128 204 -128 336z
M687 514v326c-59 -29 -97 -89 -97 -162c0 -79 38 -137 97 -164z" />
    <glyph glyph-name="mu.tnum" 
d="M661 -19v-380h-368v1359h384v-530c0 -68 48 -115 117 -115s116 47 116 115v530h384v-960h-350l-9 92c-52 -64 -151 -106 -274 -111z" />
    <glyph glyph-name="pi.tnum" 
d="M61 802v327h1340v-164c-1 -73 -1 -127 -1 -163h-151v-404c0 -75 57 -107 138 -94v-314c-6 -3 -22 -5 -49 -7s-45 -3 -56 -3c-127 0 -226 30 -299 91s-109 155 -109 282v449h-279v-804h-375v804h-159z" />
    <glyph glyph-name="degree.tnum" 
d="M714 678c-105 0 -191 32 -257 96s-99 147 -99 250c0 105 33 190 99 255s152 98 257 98c107 0 194 -33 261 -98c66 -65 99 -150 99 -255c0 -103 -33 -186 -100 -250s-153 -96 -260 -96zM637 1108c-20 -21 -30 -49 -30 -83s10 -61 30 -82c19 -21 45 -32 76 -32
c67 0 111 46 111 114s-46 115 -111 115c-31 0 -57 -11 -76 -32z" />
    <glyph glyph-name="ordmasculine.tnum" 
d="M383 1049c0 97 31 176 92 237s140 91 239 91s180 -30 242 -91c61 -61 92 -140 92 -237c0 -95 -31 -173 -92 -232c-62 -59 -143 -89 -242 -89s-178 30 -239 89s-92 137 -92 232zM408 480v166h621v-166h-621zM713 1161c-61 0 -103 -46 -103 -111s42 -110 103 -110
c64 0 107 45 107 110c0 67 -43 111 -107 111z" />
    <glyph glyph-name="ordfeminine.tnum" 
d="M424 936c0 55 23 100 69 134s106 51 181 51c48 0 88 -7 121 -21v6c0 49 -47 85 -118 85c-59 0 -108 -22 -149 -65l-96 146c26 29 62 55 109 76s96 32 148 32c93 0 168 -21 223 -64s82 -101 82 -174v-378h-189v56c-36 -40 -99 -68 -170 -68c-63 0 -114 17 -153 51
s-58 78 -58 133zM999 492h-569v165h569v-165zM625 950c0 -28 24 -45 60 -45c27 0 53 8 76 25s34 33 34 48c-21 14 -52 21 -93 21c-48 0 -77 -18 -77 -49z" />
    <glyph glyph-name="zero.slash.onum" horiz-adv-x="1295" 
d="M68 -43l149 179c-108 102 -162 234 -162 397c0 164 55 297 165 400c109 103 252 154 427 154c112 0 213 -22 302 -67l156 188l121 -96l-149 -180c109 -103 163 -236 163 -399c0 -164 -55 -297 -165 -399c-110 -103 -253 -154 -428 -154c-113 0 -214 23 -303 68l-155 -187
zM847 655l-282 -341c27 -9 55 -13 82 -13c68 0 123 22 166 65s64 99 64 167c0 45 -10 85 -30 122zM446 414l282 339c-24 9 -51 13 -81 13c-68 0 -123 -22 -165 -65c-43 -44 -64 -100 -64 -168c0 -44 9 -84 28 -119z" />
    <glyph glyph-name="zero.onum" horiz-adv-x="1349" 
d="M1102 134c-110 -103 -253 -154 -428 -154s-318 51 -427 154c-110 102 -165 235 -165 399s55 297 165 400c109 103 252 154 427 154s318 -51 428 -153c110 -103 165 -236 165 -401c0 -164 -55 -297 -165 -399zM509 701c-43 -44 -64 -100 -64 -168s21 -124 64 -167
c42 -43 97 -65 165 -65s123 22 166 65s64 99 64 167s-21 124 -64 168c-43 43 -98 65 -166 65s-123 -22 -165 -65z" />
    <glyph glyph-name="one.onum" horiz-adv-x="1084" 
d="M64 0v318h327v431h-289v318h677v-749h283v-318h-998z" />
    <glyph glyph-name="two.onum" horiz-adv-x="1152" 
d="M345 624l-282 158c44 93 110 168 199 223c88 55 185 83 291 83c152 0 274 -34 367 -102c92 -68 138 -158 138 -270c0 -157 -117 -283 -349 -391h380v-324h-994v263l-1 3l366 214c72 42 123 78 154 107c30 29 45 61 45 95c0 49 -45 84 -110 84c-91 0 -164 -60 -204 -143z
" />
    <glyph glyph-name="three.onum" horiz-adv-x="1199" 
d="M582 -309c-133 0 -256 42 -343 107c-88 65 -151 146 -184 231l284 152c55 -107 133 -160 232 -160c87 0 143 49 143 116c0 77 -59 128 -148 128h-197v260h207c34 0 64 12 90 36c26 23 39 51 39 82c0 76 -60 120 -133 120c-94 0 -168 -52 -223 -156l-272 137
c39 103 105 186 198 249s198 95 316 95c137 0 263 -36 360 -103c96 -68 157 -179 157 -314c0 -73 -28 -139 -69 -181s-86 -70 -131 -85c54 -19 102 -54 145 -106c43 -53 64 -117 64 -192c0 -124 -49 -224 -148 -301s-228 -115 -387 -115z" />
    <glyph glyph-name="four.onum" horiz-adv-x="1240" 
d="M634 -291v317h-597v237l551 804h426v-739h184v-302h-184v-317h-380zM634 664l-203 -336h203v336z" />
    <glyph glyph-name="five.onum" horiz-adv-x="1155" 
d="M547 -310c-241 0 -412 111 -511 332l297 156c51 -106 121 -159 209 -159c44 0 81 15 111 46c30 30 45 67 45 112c0 88 -65 153 -162 153c-76 0 -139 -45 -171 -98l-272 119l77 716h849v-326h-523l-18 -172c43 27 103 41 181 41c125 0 230 -41 314 -123s126 -188 126 -317
c0 -143 -51 -259 -152 -348c-102 -88 -235 -132 -400 -132z" />
    <glyph glyph-name="six.onum" horiz-adv-x="1275" 
d="M662 -20c-239 0 -404 103 -491 259c-61 105 -89 228 -89 364c0 505 243 775 688 775c77 0 144 -7 202 -21c57 -15 115 -37 172 -67l-89 -291c-89 48 -182 72 -278 72c-154 3 -293 -81 -317 -273c45 69 150 121 289 121c141 0 255 -40 340 -119s128 -185 128 -317
c0 -152 -50 -274 -151 -365c-101 -92 -236 -138 -404 -138zM786 588c-34 31 -77 47 -130 47s-96 -16 -130 -47c-34 -32 -51 -73 -51 -122s17 -90 51 -121s77 -47 130 -47s96 16 130 47s51 72 51 121s-17 90 -51 122z" />
    <glyph glyph-name="seven.onum" horiz-adv-x="1055" 
d="M28 741v326h1011v-263c-223 -355 -392 -720 -508 -1095h-419c149 419 317 763 502 1032h-586z" />
    <glyph glyph-name="eight.onum" horiz-adv-x="1240" 
d="M1012 94c-101 -76 -231 -114 -392 -114s-291 38 -392 114c-101 75 -151 173 -151 294c0 79 22 147 65 203c43 55 96 96 159 123c-57 19 -104 53 -143 101s-58 106 -58 173c0 117 48 211 144 283c95 71 221 107 376 107s280 -36 374 -107c94 -72 141 -166 141 -283
c0 -67 -19 -124 -58 -172c-39 -49 -88 -83 -146 -102c65 -26 119 -67 164 -123s67 -124 67 -203c0 -121 -50 -219 -150 -294zM466 412c0 -41 15 -73 45 -98s66 -37 109 -37s79 12 109 37s45 57 45 98c0 43 -15 77 -45 102s-66 37 -109 37s-79 -12 -109 -37s-45 -59 -45 -102
zM495 964c0 -67 46 -123 125 -123c116 -5 163 142 91 206c-23 22 -54 33 -91 33s-67 -11 -90 -33c-23 -23 -35 -50 -35 -83z" />
    <glyph glyph-name="nine.onum" horiz-adv-x="1273" 
d="M576 151c-141 0 -255 40 -340 119s-128 185 -128 317c0 152 51 274 152 366c101 91 235 137 403 137c239 0 404 -103 491 -259c61 -105 89 -228 89 -364c0 -505 -243 -775 -688 -775c-77 0 -144 7 -201 21c-58 15 -116 37 -173 67l89 291c89 -48 182 -72 278 -72
c154 -4 293 81 317 273c-45 -69 -150 -121 -289 -121zM799 725c-34 31 -77 47 -130 47s-96 -16 -130 -47s-51 -72 -51 -121s17 -90 51 -121c34 -32 77 -48 130 -48s96 16 130 48c34 31 51 72 51 121s-17 90 -51 121z" />
    <glyph glyph-name="plus.onum" horiz-adv-x="1296" 
d="M69 373v326h387v362h380v-362h391v-326h-391v-370h-380v370h-387z" />
    <glyph glyph-name="minus.onum" horiz-adv-x="1171" 
d="M1085 692v-326h-999v326h999z" />
    <glyph glyph-name="plusminus.onum" horiz-adv-x="1283" 
d="M451 283v307h-366v326h366v295h381v-295h365v-326h-365v-307h-381zM1193 143v-313h-1100v313h1100z" />
    <glyph glyph-name="equal.onum" horiz-adv-x="1329" 
d="M1215 477v-330h-1101v330h1101zM114 588v329h1101v-329h-1101z" />
    <glyph glyph-name="notequal.onum" horiz-adv-x="1289" 
d="M95 159v287h385l77 172h-462v286h590l192 429l179 -74l-160 -355h284v-286h-413l-77 -172h490v-287h-620l-187 -417l-172 79l151 338h-257z" />
    <glyph glyph-name="approxequal.onum" horiz-adv-x="1475" 
d="M268 55l-155 251c47 72 107 128 179 168s148 60 228 60c92 0 185 -30 241 -61c55 -31 129 -61 186 -61c54 0 101 8 140 23s80 42 124 81l170 -231c-51 -64 -113 -117 -186 -159c-73 -43 -151 -64 -236 -64c-103 0 -182 48 -254 86c-50 26 -116 46 -183 46
c-91 0 -176 -46 -254 -139zM259 561l-165 241c129 139 271 208 425 208c96 0 191 -30 244 -61s125 -61 185 -61c75 0 149 35 222 106l156 -239c-63 -75 -124 -129 -181 -160s-119 -47 -184 -47c-77 0 -165 33 -223 66s-143 66 -215 66c-37 0 -74 -7 -110 -21
s-64 -28 -84 -42c-20 -15 -43 -33 -70 -56z" />
    <glyph glyph-name="multiply.onum" horiz-adv-x="1228" 
d="M59 223l314 312c-33 33 -86 86 -159 158s-125 123 -156 154l245 246l310 -306l310 306l246 -246l-317 -312l318 -312l-247 -245l-310 306l-310 -306z" />
    <glyph glyph-name="less.onum" horiz-adv-x="1258" 
d="M1156 272v-370l-1086 492v277l1086 488v-371l-597 -255c40 -17 131 -57 272 -118s249 -109 325 -143z" />
    <glyph glyph-name="greater.onum" horiz-adv-x="1258" 
d="M1188 394l-1086 -492v370c76 34 185 82 326 143s231 101 271 118l-597 255v371l1086 -488v-277z" />
    <glyph glyph-name="lessequal.onum" horiz-adv-x="1377" 
d="M588 620h639v-319h-1118v434l1093 526v-398zM97 126h1145v-312h-1145v312z" />
    <glyph glyph-name="greaterequal.onum" horiz-adv-x="1379" 
d="M1268 301h-1118v319h639l-614 243v398l1093 -526v-434zM1280 -186h-1145v312h1145v-312z" />
    <glyph glyph-name="divide.onum" horiz-adv-x="1279" 
d="M1193 673v-283h-1107v283h1107zM498 -28c-39 38 -58 85 -58 140s19 102 58 140c38 38 85 57 142 57s104 -19 143 -57s58 -85 58 -140s-19 -102 -58 -140c-39 -37 -86 -56 -143 -56s-104 19 -142 56zM783 812c-39 -38 -86 -57 -143 -57s-104 19 -142 57
c-39 37 -58 84 -58 139s19 102 58 140c38 38 85 57 142 57s104 -19 143 -57s58 -85 58 -140s-19 -102 -58 -139z" />
    <glyph glyph-name="logicalnot.onum" horiz-adv-x="1330" 
d="M1210 194h-386v332h-750v326h1136v-658z" />
    <glyph glyph-name="numbersign.onum" horiz-adv-x="1347" 
d="M260 220h-204l44 237h203l32 177h-203l44 237h201l36 196h267l-36 -196h163l36 196h267l-36 -196h220l-44 -237h-218l-32 -177h218l-44 -237h-217l-40 -220h-267l40 220h-163l-40 -220h-267zM602 634l-32 -177h163l32 177h-163z" />
    <glyph glyph-name="dollar.onum" horiz-adv-x="1105" 
d="M79 251l237 167c51 -74 117 -121 198 -140v122c-63 16 -101 27 -159 50s-95 45 -137 81c-59 48 -95 121 -95 220c0 93 37 171 111 232s164 95 270 104v146h121v-148c175 -20 302 -105 380 -254l-230 -164c-43 63 -96 104 -160 123v-121c104 -29 170 -54 242 -94
c35 -20 64 -41 86 -64c43 -46 71 -111 71 -191c0 -100 -47 -186 -121 -241s-168 -89 -268 -98v-162h-121v163c-191 17 -344 109 -425 269zM675 322c0 17 -20 33 -60 48v-96c40 7 60 23 60 48zM514 701v92c-34 -7 -51 -21 -51 -42c0 -19 17 -36 51 -50z" />
    <glyph glyph-name="Euro.onum" horiz-adv-x="1227" 
d="M520 505h270v-108h-256c25 -95 78 -142 158 -142c44 0 80 16 108 48c28 31 48 67 59 106l288 -134c-83 -191 -238 -295 -457 -295c-137 0 -248 37 -334 110c-87 73 -141 175 -163 307h-113v108h103v22c0 20 0 35 1 44h-104v108h117c25 129 80 230 166 303
c86 72 195 108 327 108c107 0 200 -26 279 -77c78 -51 133 -123 166 -215l-286 -137c-33 103 -87 154 -162 154c-76 0 -126 -45 -151 -136h254v-108h-270c-1 -8 -1 -20 -1 -37c0 -13 0 -23 1 -29z" />
    <glyph glyph-name="yen.onum" horiz-adv-x="1347" 
d="M415 504l-387 563h384l261 -408l262 408h384l-387 -563h133v-115h-212v-86h200v-115h-200v-188h-359v188h-200v115h200v86h-211v115h132z" />
    <glyph glyph-name="sterling.onum" horiz-adv-x="1092" 
d="M216 379v64h-126v171h124v80c0 123 39 219 117 289c77 69 178 104 303 104c273 0 371 -205 396 -265l5 -15l-242 -134c-1 7 -3 15 -19 43c-9 14 -18 26 -28 37c-20 21 -58 43 -101 43c-63 0 -104 -41 -104 -102v-80h224v-171h-224v-34c0 -56 -19 -100 -57 -131h476v-278
h-860v223c87 49 116 97 116 156z" />
    <glyph glyph-name="currency.onum" horiz-adv-x="1272" 
d="M237 739l-167 164l171 171l165 -165c71 41 148 62 229 62c83 0 161 -21 233 -62l163 165l171 -171l-165 -164c41 -69 61 -144 61 -225c0 -85 -22 -162 -66 -231l170 -170l-171 -171l-172 174c-71 -38 -145 -57 -224 -57c-78 0 -151 19 -220 57l-174 -174l-171 171
l170 170c-42 71 -63 148 -63 231c0 82 20 157 60 225zM475 514c0 -44 16 -81 47 -112s69 -46 113 -46c45 0 84 15 116 46s48 68 48 112c0 45 -16 83 -48 115c-32 31 -71 47 -116 47c-44 0 -82 -16 -113 -47c-31 -32 -47 -70 -47 -115z" />
    <glyph glyph-name="florin.onum" horiz-adv-x="1233" 
d="M28 -101l79 273c27 -17 62 -25 103 -25c105 0 164 40 176 121l28 194h-146l43 298h145l13 87c18 119 72 215 161 286s199 106 330 106c39 0 80 -5 124 -16s80 -23 107 -38l-87 -270c-34 21 -73 32 -116 32c-89 0 -155 -46 -166 -117l-11 -70h258l-43 -298h-243l-33 -226
c-18 -123 -70 -220 -156 -290c-87 -70 -197 -105 -330 -105c-41 0 -83 6 -128 18s-81 25 -108 40z" />
    <glyph glyph-name="cent.onum" horiz-adv-x="1139" 
d="M546 -200v182c-135 15 -245 68 -330 161c-85 92 -127 204 -127 335c0 132 42 244 127 336c84 91 194 144 330 159v168h131v-167c175 -16 313 -103 386 -246l-278 -190c-26 55 -62 92 -108 109v-342c48 15 87 49 117 103l274 -192c-73 -132 -214 -219 -391 -235v-181h-131
zM452 478c0 -77 37 -135 94 -163v323c-57 -29 -94 -88 -94 -160z" />
    <glyph glyph-name="mu.onum" horiz-adv-x="1283" 
d="M509 -19v-380h-368v1359h384v-530c0 -68 48 -115 117 -115s116 47 116 115v530h384v-960h-350l-9 92c-52 -64 -151 -106 -274 -111z" />
    <glyph glyph-name="pi.onum" horiz-adv-x="1434" 
d="M26 802v327h1340v-164c-1 -73 -1 -127 -1 -163h-151v-404c0 -75 57 -107 138 -94v-314c-6 -3 -22 -5 -49 -7s-45 -3 -56 -3c-127 0 -226 30 -299 91s-109 155 -109 282v449h-279v-804h-375v804h-159z" />
    <glyph glyph-name="degree.onum" horiz-adv-x="880" 
d="M438 479c-105 0 -191 32 -257 96s-99 147 -99 250c0 105 33 190 99 255s152 98 257 98c107 0 194 -33 261 -98c66 -65 99 -150 99 -255c0 -103 -33 -186 -100 -250s-153 -96 -260 -96zM361 909c-20 -21 -30 -49 -30 -83s10 -61 30 -82c19 -21 45 -32 76 -32
c67 0 111 46 111 114s-46 115 -111 115c-31 0 -57 -11 -76 -32z" />
    <glyph glyph-name="ordmasculine.onum" horiz-adv-x="895" 
d="M115 850c0 97 31 176 92 237s140 91 239 91s180 -30 242 -91c61 -61 92 -140 92 -237c0 -95 -31 -173 -92 -232c-62 -59 -143 -89 -242 -89s-178 30 -239 89s-92 137 -92 232zM140 281v166h621v-166h-621zM445 962c-61 0 -103 -46 -103 -111s42 -110 103 -110
c64 0 107 45 107 110c0 67 -43 111 -107 111z" />
    <glyph glyph-name="ordfeminine.onum" horiz-adv-x="824" 
d="M123 736c0 55 23 100 69 134s106 51 181 51c48 0 88 -7 121 -21v6c0 49 -47 85 -118 85c-59 0 -108 -22 -149 -65l-96 146c26 29 62 55 109 76s96 32 148 32c93 0 168 -21 223 -64s82 -101 82 -174v-378h-189v56c-36 -40 -99 -68 -170 -68c-63 0 -114 17 -153 51
s-58 78 -58 133zM698 292h-569v165h569v-165zM324 750c0 -28 24 -45 60 -45c27 0 53 8 76 25s34 33 34 48c-21 14 -52 21 -93 21c-48 0 -77 -18 -77 -49z" />
    <glyph glyph-name="onehalf.onum" horiz-adv-x="1764" 
d="M1221 388l-184 113c21 59 62 108 121 146s125 57 196 57c94 0 170 -24 227 -73s86 -114 86 -194c0 -56 -23 -114 -51 -154c-14 -21 -33 -43 -56 -66c-51 -50 -72 -65 -130 -110c-27 -21 -47 -37 -60 -48h303v-199h-607v85c0 107 71 190 186 282c71 57 116 95 135 116
c26 29 39 55 39 79c0 45 -38 72 -81 72c-52 0 -99 -38 -124 -106zM355 -140v26l734 1332h225v-24l-732 -1334h-227zM303 390v625h-186v199h420v-824h-234z" />
    <glyph glyph-name="onethird.onum" horiz-adv-x="1764" 
d="M1339 -160c-67 0 -129 17 -186 52s-97 78 -118 131l161 112c3 -5 6 -10 23 -32c9 -11 18 -21 28 -29c20 -17 55 -33 88 -33c52 0 91 33 91 77c0 47 -30 78 -75 78h-120v160h120c37 0 70 36 70 75c0 41 -36 74 -83 74c-60 0 -106 -33 -138 -100l-161 110
c24 55 65 101 123 136s120 53 187 53c95 0 171 -23 230 -70c58 -47 87 -108 87 -184s-50 -145 -125 -172c79 -25 131 -103 131 -186c0 -75 -31 -136 -92 -183c-61 -46 -142 -69 -241 -69zM334 -140v26l734 1332h225v-24l-732 -1334h-227zM116 1015v199h420v-824h-234v625
h-186z" />
    <glyph glyph-name="onequarter.onum" horiz-adv-x="1672" 
d="M907 50v142l343 492h255v-453h111v-181h-111v-190h-228v190h-370zM345 -140v26l734 1332h225v-24l-732 -1334h-227zM303 390v625h-186v199h420v-824h-234zM1277 231v204l-142 -204h142z" />
    <glyph glyph-name="twothirds.onum" horiz-adv-x="1923" 
d="M246 928l-184 113c21 59 62 108 121 146s125 57 196 57c94 0 170 -24 227 -73s86 -114 86 -194c0 -56 -23 -114 -51 -154c-14 -21 -33 -43 -56 -66c-51 -50 -72 -65 -130 -110c-27 -21 -47 -37 -60 -48h303v-199h-607v85c0 107 71 190 186 282c71 57 116 95 135 116
c26 29 39 55 39 79c0 45 -38 72 -81 72c-52 0 -99 -38 -124 -106zM1500 -160c-67 0 -129 17 -186 52s-97 78 -118 131l161 112c3 -5 6 -10 23 -32c9 -11 18 -21 28 -29c20 -17 55 -33 88 -33c52 0 91 33 91 77c0 47 -30 78 -75 78h-120v160h120c37 0 70 36 70 75
c0 41 -36 74 -83 74c-60 0 -106 -33 -138 -100l-161 110c24 55 65 101 123 136s120 53 187 53c95 0 171 -23 230 -70c58 -47 87 -108 87 -184s-50 -145 -125 -172c79 -25 131 -103 131 -186c0 -75 -31 -136 -92 -183c-61 -46 -142 -69 -241 -69zM495 -140v26l734 1332h225
v-24l-732 -1334h-227z" />
    <glyph glyph-name="threequarters.onum" horiz-adv-x="1807" 
d="M357 380c-67 0 -129 17 -186 52s-97 78 -118 131l161 112c3 -5 6 -10 23 -32c9 -11 18 -21 28 -29c20 -17 55 -33 88 -33c52 0 91 33 91 77c0 47 -30 78 -75 78h-120v160h120c37 0 70 36 70 75c0 41 -36 74 -83 74c-60 0 -106 -33 -138 -100l-161 110
c24 55 65 101 123 136s120 53 187 53c95 0 171 -23 230 -70c58 -47 87 -108 87 -184s-50 -145 -125 -172c79 -25 131 -103 131 -186c0 -75 -31 -136 -92 -182c-61 -47 -142 -70 -241 -70zM1054 50v142l343 492h255v-453h111v-181h-111v-190h-228v190h-370zM472 -140v26
l734 1332h225v-24l-732 -1334h-227zM1424 435l-142 -204h142v204z" />
    <glyph glyph-name="percent.onum" horiz-adv-x="1789" 
d="M44 852c0 109 35 200 105 271s160 106 271 106s202 -35 273 -106s106 -162 106 -271c0 -107 -35 -195 -106 -264c-71 -70 -162 -105 -273 -105s-201 35 -271 104s-105 158 -105 265zM1641 -64c-71 -69 -162 -104 -273 -104s-201 35 -271 104s-105 158 -105 265
c0 109 35 200 105 271s160 106 271 106s202 -35 273 -106s106 -162 106 -271c0 -107 -35 -195 -106 -265zM1375 1186l-732 -1334h-227v26l734 1332h225v-24zM1254 202c0 -71 46 -122 113 -122c68 0 116 51 116 122c0 72 -48 123 -116 123c-67 0 -113 -51 -113 -123zM419 976
c-67 0 -113 -51 -113 -123c0 -71 46 -122 113 -122c68 0 116 51 116 122c0 72 -48 123 -116 123z" />
    <glyph glyph-name="perthousand.onum" horiz-adv-x="2607" 
d="M44 852c0 109 35 200 105 271s160 106 271 106s202 -35 273 -106s106 -162 106 -271c0 -107 -35 -195 -106 -264c-71 -70 -162 -105 -273 -105s-201 35 -271 104s-105 158 -105 265zM1641 -64c-71 -69 -162 -104 -273 -104s-201 35 -271 104s-105 158 -105 265
c0 109 35 200 105 271s160 106 271 106s202 -35 273 -106s106 -162 106 -271c0 -107 -35 -195 -106 -265zM2456 -64c-71 -69 -162 -104 -273 -104s-201 35 -271 104s-105 158 -105 265c0 109 35 200 105 271s160 106 271 106s202 -35 273 -106s106 -162 106 -271
c0 -107 -35 -195 -106 -265zM1375 1186l-732 -1334h-227v26l734 1332h225v-24zM2182 325c-67 0 -113 -51 -113 -123c0 -71 46 -122 113 -122c68 0 116 51 116 122c0 72 -48 123 -116 123zM1254 202c0 -71 46 -122 113 -122c68 0 116 51 116 122c0 72 -48 123 -116 123
c-67 0 -113 -51 -113 -123zM419 976c-67 0 -113 -51 -113 -123c0 -71 46 -122 113 -122c68 0 116 51 116 122c0 72 -48 123 -116 123z" />
    <glyph glyph-name="zero.slash.onum.tnum" 
d="M137 -43l149 179c-108 102 -162 234 -162 397c0 164 55 297 165 400c109 103 252 154 427 154c112 0 213 -22 302 -67l156 188l121 -96l-149 -180c109 -103 163 -236 163 -399c0 -164 -55 -297 -165 -399c-110 -103 -253 -154 -428 -154c-113 0 -214 23 -303 68
l-155 -187zM916 655l-282 -341c27 -9 55 -13 82 -13c68 0 123 22 166 65s64 99 64 167c0 45 -10 85 -30 122zM515 414l282 339c-24 9 -51 13 -81 13c-68 0 -123 -22 -165 -65c-43 -44 -64 -100 -64 -168c0 -44 9 -84 28 -119z" />
    <glyph glyph-name="zero.onum.tnum" 
d="M1144 134c-110 -103 -253 -154 -428 -154s-318 51 -427 154c-110 102 -165 235 -165 399s55 297 165 400c109 103 252 154 427 154s318 -51 428 -153c110 -103 165 -236 165 -401c0 -164 -55 -297 -165 -399zM551 701c-43 -44 -64 -100 -64 -168s21 -124 64 -167
c42 -43 97 -65 165 -65s123 22 166 65s64 99 64 167s-21 124 -64 168c-43 43 -98 65 -166 65s-123 -22 -165 -65z" />
    <glyph glyph-name="one.onum.tnum" 
d="M217 0v318h327v431h-289v318h677v-749h283v-318h-998z" />
    <glyph glyph-name="two.onum.tnum" 
d="M475 624l-282 158c44 93 110 168 199 223c88 55 185 83 291 83c152 0 274 -34 367 -102c92 -68 138 -158 138 -270c0 -157 -117 -283 -349 -391h380v-324h-994v263l-1 3l366 214c72 42 123 78 154 107c30 29 45 61 45 95c0 49 -45 84 -110 84c-91 0 -164 -60 -204 -143z
" />
    <glyph glyph-name="three.onum.tnum" 
d="M702 -309c-133 0 -256 42 -343 107c-88 65 -151 146 -184 231l284 152c55 -107 133 -160 232 -160c87 0 143 49 143 116c0 77 -59 128 -148 128h-197v260h207c34 0 64 12 90 36c26 23 39 51 39 82c0 76 -60 120 -133 120c-94 0 -168 -52 -223 -156l-272 137
c39 103 105 186 198 249s198 95 316 95c137 0 263 -36 360 -103c96 -68 157 -179 157 -314c0 -73 -28 -139 -69 -181s-86 -70 -131 -85c54 -19 102 -54 145 -106c43 -53 64 -117 64 -192c0 -124 -49 -224 -148 -301s-228 -115 -387 -115z" />
    <glyph glyph-name="four.onum.tnum" 
d="M733 -291v317h-597v237l551 804h426v-739h184v-302h-184v-317h-380zM733 664l-203 -336h203v336z" />
    <glyph glyph-name="five.onum.tnum" 
d="M706 -310c-241 0 -412 111 -511 332l297 156c51 -106 121 -159 209 -159c44 0 81 15 111 46c30 30 45 67 45 112c0 88 -65 153 -162 153c-76 0 -139 -45 -171 -98l-272 119l77 716h849v-326h-523l-18 -172c43 27 103 41 181 41c125 0 230 -41 314 -123s126 -188 126 -317
c0 -143 -51 -259 -152 -348c-102 -88 -235 -132 -400 -132z" />
    <glyph glyph-name="six.onum.tnum" 
d="M739 -20c-239 0 -404 103 -491 259c-61 105 -89 228 -89 364c0 505 243 775 688 775c77 0 144 -7 202 -21c57 -15 115 -37 172 -67l-89 -291c-89 48 -182 72 -278 72c-154 3 -293 -81 -317 -273c45 69 150 121 289 121c141 0 255 -40 340 -119s128 -185 128 -317
c0 -152 -50 -274 -151 -365c-101 -92 -236 -138 -404 -138zM863 588c-34 31 -77 47 -130 47s-96 -16 -130 -47c-34 -32 -51 -73 -51 -122s17 -90 51 -121s77 -47 130 -47s96 16 130 47s51 72 51 121s-17 90 -51 122z" />
    <glyph glyph-name="seven.onum.tnum" 
d="M231 741v326h1011v-263c-223 -355 -392 -720 -508 -1095h-419c149 419 317 763 502 1032h-586z" />
    <glyph glyph-name="eight.onum.tnum" 
d="M1109 94c-101 -76 -231 -114 -392 -114s-291 38 -392 114c-101 75 -151 173 -151 294c0 79 22 147 65 203c43 55 96 96 159 123c-57 19 -104 53 -143 101s-58 106 -58 173c0 117 48 211 144 283c95 71 221 107 376 107s280 -36 374 -107c94 -72 141 -166 141 -283
c0 -67 -19 -124 -58 -172c-39 -49 -88 -83 -146 -102c65 -26 119 -67 164 -123s67 -124 67 -203c0 -121 -50 -219 -150 -294zM563 412c0 -41 15 -73 45 -98s66 -37 109 -37s79 12 109 37s45 57 45 98c0 43 -15 77 -45 102s-66 37 -109 37s-79 -12 -109 -37s-45 -59 -45 -102
zM592 964c0 -67 46 -123 125 -123c116 -5 163 142 91 206c-23 22 -54 33 -91 33s-67 -11 -90 -33c-23 -23 -35 -50 -35 -83z" />
    <glyph glyph-name="nine.onum.tnum" 
d="M525 151c-141 0 -255 40 -340 119s-128 185 -128 317c0 152 51 274 152 366c101 91 235 137 403 137c239 0 404 -103 491 -259c61 -105 89 -228 89 -364c0 -505 -243 -775 -688 -775c-77 0 -144 7 -201 21c-58 15 -116 37 -173 67l89 291c89 -48 182 -72 278 -72
c154 -4 293 81 317 273c-45 -69 -150 -121 -289 -121zM748 725c-34 31 -77 47 -130 47s-96 -16 -130 -47s-51 -72 -51 -121s17 -90 51 -121c34 -32 77 -48 130 -48s96 16 130 48c34 31 51 72 51 121s-17 90 -51 121z" />
    <glyph glyph-name="plus.onum.tnum" 
d="M137 373v326h387v362h380v-362h391v-326h-391v-370h-380v370h-387z" />
    <glyph glyph-name="minus.onum.tnum" 
d="M1215 692v-326h-999v326h999z" />
    <glyph glyph-name="plusminus.onum.tnum" 
d="M526 283v307h-366v326h366v295h381v-295h365v-326h-365v-307h-381zM1268 143v-313h-1100v313h1100z" />
    <glyph glyph-name="equal.onum.tnum" 
d="M1266 477v-330h-1101v330h1101zM165 588v329h1101v-329h-1101z" />
    <glyph glyph-name="notequal.onum.tnum" 
d="M173 159v287h385l77 172h-462v286h590l192 429l179 -74l-160 -355h284v-286h-413l-77 -172h490v-287h-620l-187 -417l-172 79l151 338h-257z" />
    <glyph glyph-name="approxequal.onum.tnum" 
d="M246 55l-155 251c47 72 107 128 179 168s148 60 228 60c92 0 185 -30 241 -61c55 -31 129 -61 186 -61c54 0 101 8 140 23s80 42 124 81l170 -231c-51 -64 -113 -117 -186 -159c-73 -43 -151 -64 -236 -64c-103 0 -182 48 -254 86c-50 26 -116 46 -183 46
c-91 0 -176 -46 -254 -139zM237 561l-165 241c129 139 271 208 425 208c96 0 191 -30 244 -61s125 -61 185 -61c75 0 149 35 222 106l156 -239c-63 -75 -124 -129 -181 -160s-119 -47 -184 -47c-77 0 -165 33 -223 66s-143 66 -215 66c-37 0 -74 -7 -110 -21
s-64 -28 -84 -42c-20 -15 -43 -33 -70 -56z" />
    <glyph glyph-name="multiply.onum.tnum" 
d="M161 223l314 312c-33 33 -86 86 -159 158s-125 123 -156 154l245 246l310 -306l310 306l246 -246l-317 -312l318 -312l-247 -245l-310 306l-310 -306z" />
    <glyph glyph-name="less.onum.tnum" 
d="M1259 272v-370l-1086 492v277l1086 488v-371l-597 -255c40 -17 131 -57 272 -118s249 -109 325 -143z" />
    <glyph glyph-name="greater.onum.tnum" 
d="M1259 394l-1086 -492v370c76 34 185 82 326 143s231 101 271 118l-597 255v371l1086 -488v-277z" />
    <glyph glyph-name="lessequal.onum.tnum" 
d="M634 620h639v-319h-1118v434l1093 526v-398zM143 126h1145v-312h-1145v312z" />
    <glyph glyph-name="greaterequal.onum.tnum" 
d="M1276 301h-1118v319h639l-614 243v398l1093 -526v-434zM1288 -186h-1145v312h1145v-312z" />
    <glyph glyph-name="divide.onum.tnum" 
d="M1269 673v-283h-1107v283h1107zM574 -28c-39 38 -58 85 -58 140s19 102 58 140c38 38 85 57 142 57s104 -19 143 -57s58 -85 58 -140s-19 -102 -58 -140c-39 -37 -86 -56 -143 -56s-104 19 -142 56zM859 812c-39 -38 -86 -57 -143 -57s-104 19 -142 57
c-39 37 -58 84 -58 139s19 102 58 140c38 38 85 57 142 57s104 -19 143 -57s58 -85 58 -140s-19 -102 -58 -139z" />
    <glyph glyph-name="logicalnot.onum.tnum" 
d="M1284 194h-386v332h-750v326h1136v-658z" />
    <glyph glyph-name="numbersign.onum.tnum" 
d="M301 220h-204l44 237h203l32 177h-203l44 237h201l36 196h267l-36 -196h163l36 196h267l-36 -196h220l-44 -237h-218l-32 -177h218l-44 -237h-217l-40 -220h-267l40 220h-163l-40 -220h-267zM643 634l-32 -177h163l32 177h-163z" />
    <glyph glyph-name="dollar.onum.tnum" 
d="M249 251l237 167c51 -74 117 -121 198 -140v122c-63 16 -101 27 -159 50s-95 45 -137 81c-59 48 -95 121 -95 220c0 93 37 171 111 232s164 95 270 104v146h121v-148c175 -20 302 -105 380 -254l-230 -164c-43 63 -96 104 -160 123v-121c104 -29 170 -54 242 -94
c35 -20 64 -41 86 -64c43 -46 71 -111 71 -191c0 -100 -47 -186 -121 -241s-168 -89 -268 -98v-162h-121v163c-191 17 -344 109 -425 269zM845 322c0 17 -20 33 -60 48v-96c40 7 60 23 60 48zM684 701v92c-34 -7 -51 -21 -51 -42c0 -19 17 -36 51 -50z" />
    <glyph glyph-name="Euro.onum.tnum" 
d="M648 505h270v-108h-256c25 -95 78 -142 158 -142c44 0 80 16 108 48c28 31 48 67 59 106l288 -134c-83 -191 -238 -295 -457 -295c-137 0 -248 37 -334 110c-87 73 -141 175 -163 307h-113v108h103v22c0 20 0 35 1 44h-104v108h117c25 129 80 230 166 303
c86 72 195 108 327 108c107 0 200 -26 279 -77c78 -51 133 -123 166 -215l-286 -137c-33 103 -87 154 -162 154c-76 0 -126 -45 -151 -136h254v-108h-270c-1 -8 -1 -20 -1 -37c0 -13 0 -23 1 -29z" />
    <glyph glyph-name="yen.onum.tnum" 
d="M458 504l-387 563h384l261 -408l262 408h384l-387 -563h133v-115h-212v-86h200v-115h-200v-188h-359v188h-200v115h200v86h-211v115h132z" />
    <glyph glyph-name="sterling.onum.tnum" 
d="M426 379v64h-126v171h124v80c0 123 39 219 117 289c77 69 178 104 303 104c273 0 371 -205 396 -265l5 -15l-242 -134c-1 7 -3 15 -19 43c-9 14 -18 26 -28 37c-20 21 -58 43 -101 43c-63 0 -104 -41 -104 -102v-80h224v-171h-224v-34c0 -56 -19 -100 -57 -131h476v-278
h-860v223c87 49 116 97 116 156z" />
    <glyph glyph-name="currency.onum.tnum" 
d="M356 739l-167 164l171 171l165 -165c71 41 148 62 229 62c83 0 161 -21 233 -62l163 165l171 -171l-165 -164c41 -69 61 -144 61 -225c0 -85 -22 -162 -66 -231l170 -170l-171 -171l-172 174c-71 -38 -145 -57 -224 -57c-78 0 -151 19 -220 57l-174 -174l-171 171
l170 170c-42 71 -63 148 -63 231c0 82 20 157 60 225zM594 514c0 -44 16 -81 47 -112s69 -46 113 -46c45 0 84 15 116 46s48 68 48 112c0 45 -16 83 -48 115c-32 31 -71 47 -116 47c-44 0 -82 -16 -113 -47c-31 -32 -47 -70 -47 -115z" />
    <glyph glyph-name="florin.onum.tnum" 
d="M152 -101l79 273c27 -17 62 -25 103 -25c105 0 164 40 176 121l28 194h-146l43 298h145l13 87c18 119 72 215 161 286s199 106 330 106c39 0 80 -5 124 -16s80 -23 107 -38l-87 -270c-34 21 -73 32 -116 32c-89 0 -155 -46 -166 -117l-11 -70h258l-43 -298h-243l-33 -226
c-18 -123 -70 -220 -156 -290c-87 -70 -197 -105 -330 -105c-41 0 -83 6 -128 18s-81 25 -108 40z" />
    <glyph glyph-name="cent.onum.tnum" 
d="M682 -120v182c-135 15 -244 68 -328 161c-85 92 -127 204 -127 335s42 243 126 335s194 145 329 160v168h131v-167c176 -16 313 -102 388 -246l-278 -190c-27 57 -64 93 -110 109v-342c48 13 88 48 119 103l274 -192c-73 -132 -214 -219 -393 -235v-181h-131zM590 558
c0 -77 31 -131 92 -162v321c-56 -29 -92 -88 -92 -159z" />
    <glyph glyph-name="mu.onum.tnum" 
d="M661 -19v-380h-368v1359h384v-530c0 -68 48 -115 117 -115s116 47 116 115v530h384v-960h-350l-9 92c-52 -64 -151 -106 -274 -111z" />
    <glyph glyph-name="pi.onum.tnum" 
d="M61 802v327h1340v-164c-1 -73 -1 -127 -1 -163h-151v-404c0 -75 57 -107 138 -94v-314c-6 -3 -22 -5 -49 -7s-45 -3 -56 -3c-127 0 -226 30 -299 91s-109 155 -109 282v449h-279v-804h-375v804h-159z" />
    <glyph glyph-name="degree.onum.tnum" 
d="M714 479c-105 0 -191 32 -257 96s-99 147 -99 250c0 105 33 190 99 255s152 98 257 98c107 0 194 -33 261 -98c66 -65 99 -150 99 -255c0 -103 -33 -186 -100 -250s-153 -96 -260 -96zM637 909c-20 -21 -30 -49 -30 -83s10 -61 30 -82c19 -21 45 -32 76 -32
c67 0 111 46 111 114s-46 115 -111 115c-31 0 -57 -11 -76 -32z" />
    <glyph glyph-name="ordmasculine.onum.tnum" 
d="M383 850c0 97 31 176 92 237s140 91 239 91s180 -30 242 -91c61 -61 92 -140 92 -237c0 -95 -31 -173 -92 -232c-62 -59 -143 -89 -242 -89s-178 30 -239 89s-92 137 -92 232zM408 281v166h621v-166h-621zM713 962c-61 0 -103 -46 -103 -111s42 -110 103 -110
c64 0 107 45 107 110c0 67 -43 111 -107 111z" />
    <glyph glyph-name="ordfeminine.onum.tnum" 
d="M426 736c0 55 23 100 69 134s106 51 181 51c48 0 88 -7 121 -21v6c0 49 -47 85 -118 85c-59 0 -108 -22 -149 -65l-96 146c26 29 62 55 109 76s96 32 148 32c93 0 168 -21 223 -64s82 -101 82 -174v-378h-189v56c-36 -40 -99 -68 -170 -68c-63 0 -114 17 -153 51
s-58 78 -58 133zM1001 292h-569v165h569v-165zM627 750c0 -28 24 -45 60 -45c27 0 53 8 76 25s34 33 34 48c-21 14 -52 21 -93 21c-48 0 -77 -18 -77 -49z" />
    <glyph glyph-name="A.smcp" horiz-adv-x="1192" 
d="M378 0h-379l386 1030h422l386 -1030h-379l-47 157h-342zM698 418l-102 303l-102 -303h204z" />
    <glyph glyph-name="B.smcp" horiz-adv-x="1097" 
d="M700 0h-579v1030h547c103 0 186 -25 250 -76s96 -120 96 -207c0 -93 -48 -179 -125 -224c100 -39 153 -129 153 -234c0 -83 -31 -151 -93 -206s-145 -83 -249 -83zM471 406v-148h130c41 0 70 36 70 73c0 43 -27 75 -70 75h-130zM471 772v-149h120c39 0 62 35 62 76
c0 37 -27 73 -68 73h-114z" />
    <glyph glyph-name="C.smcp" horiz-adv-x="1100" 
d="M55 518c0 301 221 532 557 532c99 0 190 -25 273 -76s144 -118 183 -203l-262 -174c-36 85 -103 144 -194 144c-59 0 -108 -21 -147 -62c-40 -41 -60 -95 -60 -161c0 -67 20 -122 61 -165c41 -44 90 -66 147 -66c85 0 152 45 199 135l258 -167
c-41 -83 -104 -150 -189 -200s-177 -75 -277 -75c-325 -4 -555 237 -549 538z" />
    <glyph glyph-name="D.smcp" horiz-adv-x="1205" 
d="M617 0h-496v1029h496c315 0 532 -228 532 -513c0 -141 -55 -272 -147 -365s-230 -151 -385 -151zM597 760h-106v-491h103c59 0 108 24 147 73s58 107 58 174s-19 124 -57 172s-86 72 -145 72z" />
    <glyph glyph-name="E.smcp" horiz-adv-x="991" 
d="M933 0h-812v1029h804v-269h-434v-109h381v-257h-381v-126h442v-268z" />
    <glyph glyph-name="F.smcp" horiz-adv-x="972" 
d="M491 0h-370v1030h815v-284h-445v-133h363v-272h-363v-341z" />
    <glyph glyph-name="G.smcp" horiz-adv-x="1180" 
d="M55 517c0 153 52 281 157 382c104 101 239 151 405 151c101 0 191 -22 271 -67s140 -103 180 -172l-253 -182c-45 75 -109 112 -194 112c-65 0 -117 -21 -156 -63c-40 -42 -60 -96 -60 -161c0 -70 20 -128 60 -174c39 -47 90 -70 153 -70c68 0 130 32 153 85h-195v218
h553v-78c0 -109 -23 -203 -69 -282s-107 -138 -184 -177c-77 -40 -165 -59 -264 -59c-165 0 -299 51 -402 153c-103 101 -155 229 -155 384z" />
    <glyph glyph-name="H.smcp" horiz-adv-x="1317" 
d="M121 0v1030h370v-377h335v377h370v-1030h-370v370h-335v-370h-370z" />
    <glyph glyph-name="I.smcp" horiz-adv-x="622" 
d="M121 1030h380v-1030h-380v1030z" />
    <glyph glyph-name="J.smcp" horiz-adv-x="937" 
d="M-6 184l210 203c47 -68 98 -102 153 -102c64 0 100 41 100 106v639h370v-663c0 -121 -40 -215 -120 -284s-189 -103 -327 -103c-85 0 -162 19 -233 59c-71 39 -122 87 -153 145z" />
    <glyph glyph-name="K.smcp" horiz-adv-x="1184" 
d="M491 0h-370v1029h370v-315l272 315h417l-383 -420l395 -609h-405l-223 368l-73 -80v-288z" />
    <glyph glyph-name="L.smcp" horiz-adv-x="966" 
d="M121 1030h370v-746h455v-284h-825v1030z" />
    <glyph glyph-name="M.smcp" horiz-adv-x="1457" 
d="M471 0h-350v1029h422l185 -530l186 530h422v-1029h-350v465l-150 -408h-211l-154 408v-465z" />
    <glyph glyph-name="N.smcp" horiz-adv-x="1273" 
d="M481 457v-457h-360v1030h273l398 -457v457h360v-1030h-273z" />
    <glyph glyph-name="O.smcp" horiz-adv-x="1221" 
d="M612 -20c-165 0 -299 50 -402 149s-154 229 -154 388c0 158 51 286 154 385s237 148 402 148c164 0 297 -49 400 -148c102 -99 153 -228 153 -386c0 -159 -51 -288 -153 -387s-235 -149 -400 -149zM406 516c0 -71 19 -129 58 -173c38 -44 88 -66 149 -66s110 22 147 66
s55 102 55 173c0 69 -18 126 -55 169s-86 65 -147 65s-111 -22 -149 -65c-39 -43 -58 -100 -58 -169z" />
    <glyph glyph-name="P.smcp" horiz-adv-x="1075" 
d="M491 312v-312h-370v1029h547c105 0 193 -34 266 -101s109 -152 109 -255c0 -102 -36 -188 -109 -257s-162 -104 -266 -104h-177zM620 759h-129v-176h129c45 0 76 42 76 90c0 49 -29 86 -76 86z" />
    <glyph glyph-name="Q.smcp" horiz-adv-x="1221" 
d="M659 -20c-165 0 -299 50 -402 149s-154 229 -154 388c0 158 51 286 154 385s237 148 402 148c164 0 297 -49 400 -148c102 -99 153 -228 153 -386c0 -171 -63 -314 -178 -409l72 -100l-199 -133l-90 124c-49 -12 -102 -18 -158 -18zM453 516c0 -128 69 -221 174 -237
l-66 94l182 128l87 -123c21 39 32 85 32 138c0 69 -18 126 -55 169s-86 65 -147 65s-111 -22 -149 -65c-39 -43 -58 -100 -58 -169z" />
    <glyph glyph-name="R.smcp" horiz-adv-x="1110" 
d="M491 323v-323h-370v1030h576c105 0 193 -33 266 -100s109 -153 109 -257c0 -129 -69 -236 -174 -299l187 -374h-371l-143 323h-80zM624 764h-133v-176h133c48 0 81 40 81 88c0 51 -30 88 -81 88z" />
    <glyph glyph-name="S.smcp" horiz-adv-x="1018" 
d="M50 199l227 198c69 -93 162 -138 245 -138c61 0 91 14 91 41c0 19 -12 33 -36 44s-73 27 -148 49c-110 32 -207 74 -272 147c-41 45 -68 110 -68 185c0 93 40 171 121 233c80 61 181 92 304 92c94 0 178 -20 252 -59c74 -40 130 -90 167 -150l-217 -182
c-57 74 -123 111 -198 111c-49 0 -83 -17 -83 -42c0 -31 39 -46 144 -79c15 -5 27 -8 35 -11c87 -28 144 -49 206 -88c31 -19 56 -40 75 -63c38 -45 64 -110 64 -189c0 -93 -40 -170 -121 -229s-186 -89 -317 -89c-217 0 -376 82 -471 219z" />
    <glyph glyph-name="T.smcp" horiz-adv-x="962" 
d="M296 746h-280v284h930v-284h-280v-746h-370v746z" />
    <glyph glyph-name="U.smcp" horiz-adv-x="1178" 
d="M110 378v652h370v-614c0 -91 44 -135 109 -135s109 44 109 135v614h370v-652c0 -131 -43 -230 -130 -297s-204 -101 -349 -101s-261 34 -348 101s-131 166 -131 297z" />
    <glyph glyph-name="V.smcp" horiz-adv-x="1107" 
d="M749 0h-388l-356 1029h366l185 -615l181 615h366z" />
    <glyph glyph-name="W.smcp" horiz-adv-x="1540" 
d="M283 0l-269 1029h344l134 -577l141 564h275l141 -565l133 578h344l-268 -1029h-384l-104 377l-105 -377h-382z" />
    <glyph glyph-name="X.smcp" horiz-adv-x="1140" 
d="M387 0h-390l378 526l-359 503h388l166 -242l165 242h391l-361 -503l379 -526h-390l-183 272z" />
    <glyph glyph-name="Y.smcp" horiz-adv-x="1132" 
d="M387 385l-383 644h391l172 -336l170 336h391l-383 -644v-385h-358v385z" />
    <glyph glyph-name="Z.smcp" horiz-adv-x="993" 
d="M935 0h-877v227l444 533h-433v269h857v-233l-438 -528h447v-268z" />
    <glyph glyph-name="ampersand.smcp" horiz-adv-x="1210" 
d="M48 301c0 55 19 106 58 153c39 46 87 78 144 97c-53 51 -92 132 -92 196c0 217 178 305 377 305c121 0 220 -37 275 -92c55 -56 83 -122 83 -190c0 -49 -18 -97 -55 -142s-84 -85 -140 -119l92 -90c28 43 24 81 24 115h285c4 -135 -25 -238 -88 -310l236 -231h-379
l-80 83c-34 -28 -78 -51 -133 -69s-112 -27 -170 -27c-155 0 -290 45 -374 145c-42 49 -63 108 -63 176zM378 336c0 -49 43 -97 106 -97c39 0 73 11 101 33l-153 143c-36 -22 -54 -48 -54 -79zM537 661c34 27 51 53 51 80c0 23 -19 52 -52 52s-56 -25 -56 -58
c0 -17 19 -42 57 -74z" />
    <glyph glyph-name="Agrave.smcp" horiz-adv-x="1192" 
d="M378 0h-379l386 1030h422l386 -1030h-379l-47 157h-342zM747 1156h-312l-287 334h432zM596 721l-102 -303h204z" />
    <glyph glyph-name="Aacute.smcp" horiz-adv-x="1192" 
d="M378 0h-379l386 1030h422l386 -1030h-379l-47 157h-342zM1046 1487l-287 -334h-312l167 334h432zM698 418l-102 303l-102 -303h204z" />
    <glyph glyph-name="Acircumflex.smcp" horiz-adv-x="1192" 
d="M378 0h-379l386 1030h422l386 -1030h-379l-47 157h-342zM596 1285l-104 -160h-311l287 370h257l287 -370h-312zM698 418l-102 303l-102 -303h204z" />
    <glyph glyph-name="Adotbelow.smcp" horiz-adv-x="1192" 
d="M378 0h-379l386 1030h422l386 -1030h-379l-47 157h-342zM396 -287c0 55 20 102 60 141c39 39 85 59 138 59c55 0 102 -20 143 -61c40 -40 60 -86 60 -139c0 -55 -21 -101 -62 -138s-88 -56 -141 -56c-54 0 -100 19 -139 58s-59 85 -59 136zM698 418l-102 303l-102 -303
h204z" />
    <glyph glyph-name="Atilde.smcp" horiz-adv-x="1192" 
d="M378 0h-379l386 1030h422l386 -1030h-379l-47 157h-342zM331 1150l-140 127c77 156 179 230 288 230c53 0 109 -23 144 -46s79 -46 112 -46c40 0 83 26 129 77l137 -117c-51 -104 -129 -177 -196 -205c-33 -15 -66 -22 -99 -22c-86 -4 -185 92 -250 89
c-40 0 -82 -29 -125 -87zM698 418l-102 303l-102 -303h204z" />
    <glyph glyph-name="Adieresis.smcp" horiz-adv-x="1192" 
d="M378 0h-379l386 1030h422l386 -1030h-379l-47 157h-342zM233 1350c0 100 68 168 167 168c98 0 168 -70 168 -168c0 -99 -69 -166 -168 -166s-167 67 -167 166zM624 1350c0 100 69 168 166 168c100 0 169 -69 169 -168s-69 -166 -169 -166c-97 0 -166 67 -166 166z
M698 418l-102 303l-102 -303h204z" />
    <glyph glyph-name="Amacron.smcp" horiz-adv-x="1192" 
d="M378 0h-379l386 1030h422l386 -1030h-379l-47 157h-342zM301 1189v234h591v-234h-591zM698 418l-102 303l-102 -303h204z" />
    <glyph glyph-name="Abreve.smcp" horiz-adv-x="1192" 
d="M378 0h-379l386 1030h422l386 -1030h-379l-47 157h-342zM249 1497h249c-3 -81 35 -134 98 -134c64 0 102 53 98 134h250c0 -107 -31 -193 -94 -257s-147 -96 -254 -96c-105 0 -189 32 -252 96s-95 150 -95 257zM596 721l-102 -303h204z" />
    <glyph glyph-name="Aring.smcp" horiz-adv-x="1192" 
d="M378 0h-379l386 1030h422l386 -1030h-379l-47 157h-342zM596 1100c-67 0 -122 22 -165 65c-44 43 -66 98 -66 163c0 66 22 121 66 165c43 44 98 66 165 66c66 0 121 -22 166 -66c44 -44 66 -99 66 -165c0 -65 -22 -119 -66 -162c-45 -44 -100 -66 -166 -66zM596 721
l-102 -303h204zM633 1367c-21 23 -53 23 -73 0c-21 -23 -21 -53 0 -75c20 -22 52 -22 73 0c20 22 20 52 0 75z" />
    <glyph glyph-name="Aringacute.smcp" horiz-adv-x="1192" 
d="M378 0h-379l386 1030h422l386 -1030h-379l-47 157h-342zM596 1100c-67 0 -122 22 -165 65c-44 43 -66 98 -66 163c0 66 22 121 66 165c43 44 98 66 165 66c66 0 121 -22 166 -66c44 -44 66 -99 66 -165c0 -65 -22 -119 -66 -162c-45 -44 -100 -66 -166 -66zM1036 1935
l-287 -334h-312l167 334h432zM698 418l-102 303l-102 -303h204zM633 1367c-21 23 -53 23 -73 0c-21 -23 -21 -53 0 -75c20 -22 52 -22 73 0c20 22 20 52 0 75z" />
    <glyph glyph-name="Aogonek.smcp" horiz-adv-x="1192" 
d="M378 0h-379l386 1030h422l386 -1030h-137c-123 -64 -196 -129 -196 -178c0 -41 32 -67 83 -67c41 0 81 9 119 27l64 -206c-62 -38 -139 -57 -230 -57c-86 0 -154 20 -204 60c-51 41 -76 94 -76 161c0 98 66 185 198 260l-47 157h-342zM596 721l-102 -303h204z" />
    <glyph glyph-name="AE.smcp" horiz-adv-x="1591" 
d="M406 157l-70 -157h-378l537 1029h1030v-269h-434v-109h381v-257h-381v-126h442v-268h-812v157h-315zM721 418v425l-209 -425h209z" />
    <glyph glyph-name="AEacute.smcp" horiz-adv-x="1591" 
d="M406 157l-70 -157h-378l537 1029h1030v-269h-434v-109h381v-257h-381v-126h442v-268h-812v157h-315zM1179 1153h-312l167 334h432zM721 418v425l-209 -425h209z" />
    </font>
</defs>
</svg>
